(Instrumental Rock, Surf Rock) [CD] The Ventures - The Ventures Magic Guitares - 1988, FLAC (image+.cue), lossless 

Цитировать
The Ventures - The Ventures Magic Guitares
Жанр: Instrumental Rock, Surf Rock
Носитель: CD
Страна-производитель диска (релиза): Switzerland
Год издания: 1988
Издатель (лейбл): Drive
Номер по каталогу: CD Drive 3048 ADD
Страна исполнителя (группы): USA
Аудиокодек: FLAC (*.flac)
Тип рипа: image+.cue
Битрейт аудио: lossless
Продолжительность: 00:52:16
Источник (релизер): alexpika
Наличие сканов в содержимом раздачи: да
Треклист:
01 Walk Don't Run (Smith) 02:09
02 Memphis (Berry) 02:32
03 Rebel Rouser (Eddy, Hazelwood) 02:44
04 Apache (Lordan) 03:03
05 Pipeline (Spickard, Carmen) 02:24
06 Telstar (Meek) 02:38
07 Hawaii Five O (Stevens) 01:47
08 Tequila (Rio) 02:47
09 Wheels (Torres, Stephens) 02:04
10 Bumble Bee Rock (Bogle, Wilson, Taylor, Edwards) 02:30
11 Slaughter On 10-th Avenue (Rodgers) 02:03
12 Ghost Riders In The Sky (Jones) 02:40
13 Perfidia (Dominguez) 02:06
14 Raunchy (Manker, Justice Jr.) 02:45
15 House Of The Rising Sun (Trad. A.Price) 02:24
16 Walk Don't Run (Smith) 02:23
17 Wipe Out (The Surfaris) 04:01
18 Guitar Boogie Shuffle (Smith) 02:37
19 Driving Guitars (Wilson, Bogla, Edwards 01:54
20 Sleepwalk (Farina, Farina, Farina) 02:13

Лог создания рипа

Exact Audio Copy V1.0 beta 3 from 29. August 2011
EAC extraction logfile from 17. December 2016, 9:41
The Ventures / Collection
Used drive : TSSTcorpCDDVDW SH-216DB Adapter: 0 ID: 0
Read mode : SecureUtilize accurate stream : YesDefeat audio cache : YesMake use of C2 pointers : No
Read offset correction : 6Overread into Lead-In and Lead-Out : NoFill up missing offset samples with silence : YesDelete leading and trailing silent blocks : NoNull samples used in CRC calculations : YesUsed interface : Native Win32 interface for Win NT & 2000
Used output format : User Defined EncoderSelected bitrate : 1024 kBit/sQuality : HighAdd ID3 tag : NoCommand line compressor : C:\Program Files (x86)\Exact Audio Copy\Flac\flac.exeAdditional command line options : -V -8 -T "Date=%year%" -T "Genre=%genre%" %source%
TOC of the extracted CD
Track | Start | Length | Start sector | End sector --------------------------------------------------------- 1 | 0:00.33 | 2:11.47 | 33 | 9904 2 | 2:12.05 | 2:34.60 | 9905 | 21514 3 | 4:46.65 | 2:46.45 | 21515 | 34009 4 | 7:33.35 | 3:04.33 | 34010 | 47842 5 | 10:37.68 | 2:25.27 | 47843 | 58744 6 | 13:03.20 | 2:40.70 | 58745 | 70814 7 | 15:44.15 | 1:49.70 | 70815 | 79059 8 | 17:34.10 | 2:49.43 | 79060 | 91777 9 | 20:23.53 | 2:04.30 | 91778 | 101107 10 | 22:28.08 | 2:30.52 | 101108 | 112409 11 | 24:58.60 | 2:05.73 | 112410 | 121857 12 | 27:04.58 | 2:41.30 | 121858 | 133962 13 | 29:46.13 | 2:07.62 | 133963 | 143549 14 | 31:54.00 | 2:47.68 | 143550 | 156142 15 | 34:41.68 | 4:25.67 | 156143 | 176084 16 | 39:07.60 | 2:23.40 | 176085 | 186849 17 | 41:31.25 | 4:03.38 | 186850 | 205112 18 | 45:34.63 | 2:37.55 | 205113 | 216942 19 | 48:12.43 | 1:56.35 | 216943 | 225677 20 | 50:09.03 | 2:07.67 | 225678 | 235269
Range status and errors
Selected range
Filename L:\Private\My Audio Ripps\ CD - RIPS\The Ventures Collection\The Ventures - Collection.wav
Peak level 100.0 % Extraction speed 2.4 X Range quality 100.0 % Test CRC 2521D1EE Copy CRC 2521D1EE Copy OK
No errors occurred
AccurateRip summary
Track 1 accurately ripped (confidence 2) [C0E5BCFD] (AR v2)Track 2 accurately ripped (confidence 2) [E07738CC] (AR v2)Track 3 accurately ripped (confidence 2) [CC6F9CBA] (AR v2)Track 4 accurately ripped (confidence 2) [A8DC6B06] (AR v2)Track 5 accurately ripped (confidence 2) [84EC23CE] (AR v2)Track 6 accurately ripped (confidence 2) [819DFB13] (AR v2)Track 7 accurately ripped (confidence 2) [336065BD] (AR v2)Track 8 accurately ripped (confidence 2) [99AEFD9F] (AR v2)Track 9 accurately ripped (confidence 2) [259091CC] (AR v2)Track 10 accurately ripped (confidence 2) [53708E4E] (AR v2)Track 11 accurately ripped (confidence 2) [2498B35A] (AR v2)Track 12 accurately ripped (confidence 2) [5B600960] (AR v2)Track 13 accurately ripped (confidence 2) [5644CCD0] (AR v2)Track 14 accurately ripped (confidence 2) [211ACC46] (AR v2)Track 15 accurately ripped (confidence 2) [71B368E5] (AR v2)Track 16 accurately ripped (confidence 2) [009ED06C] (AR v2)Track 17 accurately ripped (confidence 2) [92FED5A8] (AR v2)Track 18 accurately ripped (confidence 2) [8756E83A] (AR v2)Track 19 accurately ripped (confidence 2) [DC62B55D] (AR v2)Track 20 accurately ripped (confidence 2) [32A13185] (AR v2)
All tracks accurately ripped
End of status report
==== Log checksum B849F0302717A89AA94A0A61290394ABF67E7FA79A9D8520EC7815D15A0FA2B2 ====

Содержание индексной карты (.CUE)

REM GENRE "Instrumental Rock"REM DATE 1988REM DISCID 200C4014REM COMMENT "ExactAudioCopy v1.0b3"PERFORMER "The Ventures"TITLE "Collection"FILE "The Ventures - Collection.flac" WAVE  TRACK 01 AUDIO    TITLE "Walk Don't Run"    PERFORMER "The Ventures"    INDEX 00 00:00:00    INDEX 01 00:00:33  TRACK 02 AUDIO    TITLE "Memphis"    PERFORMER "The Ventures"    INDEX 00 02:08:28    INDEX 01 02:12:05  TRACK 03 AUDIO    TITLE "Rebel Rouser"    PERFORMER "The Ventures"    INDEX 00 04:42:13    INDEX 01 04:46:65  TRACK 04 AUDIO    TITLE "Apache"    PERFORMER "The Ventures"    INDEX 00 07:28:65    INDEX 01 07:33:35  TRACK 05 AUDIO    TITLE "Pipeline"    PERFORMER "The Ventures"    INDEX 00 10:33:28    INDEX 01 10:37:68  TRACK 06 AUDIO    TITLE "Telstar"    PERFORMER "The Ventures"    INDEX 00 12:59:18    INDEX 01 13:03:20  TRACK 07 AUDIO    TITLE "Hawaii Five O"    PERFORMER "The Ventures"    INDEX 00 15:39:25    INDEX 01 15:44:15  TRACK 08 AUDIO    TITLE "Tequila"    PERFORMER "The Ventures"    INDEX 00 17:30:65    INDEX 01 17:34:10  TRACK 09 AUDIO    TITLE "Wheels"    PERFORMER "The Ventures"    INDEX 00 20:19:48    INDEX 01 20:23:53  TRACK 10 AUDIO    TITLE "Bumble Bee Rock"    PERFORMER "The Ventures"    INDEX 00 22:24:10    INDEX 01 22:28:08  TRACK 11 AUDIO    TITLE "Slaughter On 10th Avanue"    PERFORMER "The Ventures"    INDEX 00 24:55:13    INDEX 01 24:58:60  TRACK 12 AUDIO    TITLE "Ghost Riders In The Sky"    PERFORMER "The Ventures"    INDEX 00 27:01:20    INDEX 01 27:04:58  TRACK 13 AUDIO    TITLE "Perfidia"    PERFORMER "The Ventures"    INDEX 00 29:41:60    INDEX 01 29:46:13  TRACK 14 AUDIO    TITLE "Raunchy"    PERFORMER "The Ventures"    INDEX 00 31:50:40    INDEX 01 31:54:00  TRACK 15 AUDIO    TITLE "House Of The Rising Sun"    PERFORMER "The Ventures"    INDEX 00 34:37:40    INDEX 01 34:41:68  TRACK 16 AUDIO    TITLE "Walk Don't Run (alternate)"    PERFORMER "The Ventures"    INDEX 00 39:03:48    INDEX 01 39:07:60  TRACK 17 AUDIO    TITLE "Wipe Out"    PERFORMER "The Ventures"    INDEX 00 41:27:68    INDEX 01 41:31:25  TRACK 18 AUDIO    TITLE "Guitar Boogie Shuffle"    PERFORMER "The Ventures"    INDEX 00 45:30:43    INDEX 01 45:34:63  TRACK 19 AUDIO    TITLE "Driving Guitars"    PERFORMER "The Ventures"    INDEX 00 48:08:30    INDEX 01 48:12:43  TRACK 20 AUDIO    TITLE "Sleepwalk"    PERFORMER "The Ventures"    INDEX 00 50:04:60    INDEX 01 50:09:03

Лог проверки качества

-----------------------
DON'T MODIFY THIS FILE
-----------------------
PERFORMER: auCDtect Task Manager, ver. 1.5.1RC4 build 1.5.1.5Copyright (c) 2008-2010 y-soft. All rights reservedhttp://y-soft.org
ANALYZER: auCDtect: CD records authenticity detector, version 0.8.2Copyright (c) 2004 Oleg Berngardt. All rights reserved.Copyright (c) 2004 Alexander Djourik. All rights reserved.
FILE: The Ventures - Collection.flac Size: 322536368 Hash: A737F05FDF19F6CF0244CBAC199F79B0 Accuracy: -m0 Conclusion: CDDA 100% Signature: 082DDFC7868AAE3DB7FBC98AC12CE781C534D96F

DR log

foobar2000 1.3.9 / Замер динамического диапазона (DR) 1.1.1Дата отчёта:  2016-12-21 11:15:43
--------------------------------------------------------------------------------Анализ: The Ventures / Collection--------------------------------------------------------------------------------
DR Пики RMS Продолжительность трека--------------------------------------------------------------------------------DR13 0.00 дБ -14.75 дБ 2:12 1-Walk Don't RunDR12 0.00 дБ -14.28 дБ 2:35 2-MemphisDR13 -1.03 дБ -15.40 дБ 2:47 3-Rebel RouserDR11 -0.31 дБ -15.03 дБ 3:04 4-ApacheDR12 -0.60 дБ -15.55 дБ 2:25 5-PipelineDR11 -1.13 дБ -15.17 дБ 2:41 6-TelstarDR11 -1.04 дБ -15.47 дБ 1:50 7-Hawaii Five ODR13 -0.69 дБ -16.23 дБ 2:50 8-TequilaDR13 -0.40 дБ -16.53 дБ 2:04 9-WheelsDR12 -0.74 дБ -15.55 дБ 2:31 10-Bumble Bee RockDR12 -1.08 дБ -16.15 дБ 2:06 11-Slaughter On 10th AvanueDR14 0.00 дБ -17.15 дБ 2:41 12-Ghost Riders In The SkyDR13 -0.88 дБ -16.41 дБ 2:08 13-PerfidiaDR12 -0.22 дБ -14.18 дБ 2:48 14-RaunchyDR12 -1.19 дБ -15.58 дБ 4:26 15-House Of The Rising SunDR15 -0.38 дБ -19.53 дБ 2:24 16-Walk Don't Run (alternate)DR14 -0.60 дБ -17.26 дБ 4:04 17-Wipe OutDR13 -1.16 дБ -17.13 дБ 2:38 18-Guitar Boogie ShuffleDR13 -1.75 дБ -17.81 дБ 1:56 19-Driving GuitarsDR12 -1.72 дБ -17.33 дБ 2:08 20-Sleepwalk--------------------------------------------------------------------------------
Количество треков: 20Реальные значения DR: DR13
Частота: 44100 ГцКаналов: 2Разрядность: 16Битрейт: 822 кбит/сКодек: FLAC================================================================================
Доп. информация

Об исполнителе

"Ventures" хотя и были не первой, но зато одной из наиболее популярных и плодовитых инструментальных групп. Став одними из законодателей серфа, музыканты тем не мене старались не причислять себя к этому жанру. Кроме того, ансамбль побил все рекорды активности, ведь за свою полувековую карьеру не проходило и года, чтобы коллектив не выступал или не записывался, причем на ранней стадии ежегодно выходило до шести альбомов. В течение 60-х "Ventures" наштамповали кучу хит-синглов, наиболее примечательными из которых были "Walk-Don't Run" и "Hawaii Five-O". Однако команда заняла свою нишу и на альбомном рынке, включая в свои пластинки каверы популярных песен. Всего за свою сверхпродолжительную карьеру ансамбль выпустил свыше 250 полнометражек (включая сборники), причем 40 из них побывали в американских чартах, а 17 присутствовали в Топ 40. И хотя к началу 70-х годов популярность ансамбля в родных Штатах пошла на спад, музыканты продолжали свою деятельность на японском и европейском рынках, выпуская пластинки только для этих регионов.
А начиналось все в 1959 году в небольшом портовом городишке Такома, где строители Боб Богл и Дон Уилсон в свободное от работы время организовали группу "The Impacts". Неплохо владея гитарами, они периодически раскатывали с концертами в пределах штатов Вашингтон и Айдахо. Постоянной ритм-секции у них не было, но Боба и Дона это не очень смущало. Подготовив первую демку, парни ее отправили на "Dolton", подразделение "Liberty Records". Оттуда пленку завернули, и музыкантам ничего не оставалось делать, как основать свой собственный лейбл, получивший название "Blue Horizon".
Записав один провальный сингл с вокалом ("Cookies And Coke"), Боб и Дон рекрутировали в команду басиста Ноки Эдвардса и ударника Скипа Мура, решив, что будут теперь играть только инструментальную музыку. На данном этапе вывеска сменилась на "The Ventures", и под этим названием ансамбль укрылся в студии, чтобы реализовать идеи, подслушанные на диске Чета Эткинса "Hi Fi In Focus". Первый же сингл, "Walk-Don't Run", выпущенный на "Blue Horizon", стал большим хитом в окрестностях после того как его начали крутить на одной из радиостанций Сиэтла. Спохватившаяся "Dolton" быстренько приобрела на него лицензию и стала его распространять по всем Штатам. В результате "Walk-Don't Run" летом 1960 года занял вторую строчку в национальных чартах, уступив лишь "It's Now Or Never" Элвиса Пресли. Мура за барабанами вскоре сменил Хоуи Джонсон, и "Ventures" приступили к записи дебютного альбома, названного, так же как и первый шлягер.
В начале 60-х хит-синглы "Perfidia" и "Ram-Bunk-Shush" угодили в Топ 40, но вскоре ансамбль придумал свою фирменную фишку – выпускать альбомы с композициями, связанными одной тематикой и с похожей аранжировкой. Так, например, четвертый лонгплей "The Colorful Ventures", включал в себя "цветные" вещи типа "Yellow Jacket", "Red Top", "Orange Fire" и т.п. Кроме того, группа делала жанровые подборки и умудрялась накладывать свой собственный отпечаток на стили, которые она "пародировала". Вариантов было перепробовано множество: в 60-х – твист, кантри, поп, "шпионская музыка", психоделика, свамп, гаражный рок, саундтреки, в 70-х – фанк, диско, рэгги, софт-рок, латино.
Впрочем, наибольший успех в то время группе принесла "нетематическая" пластинка "Play Telstar And The Lonely Bull". Благодаря удачному каверу "Telstar" британской команды "The Tornadoes" альбом побывал в горячей десятке и добыл команде первое золото. В 1962-м конфигурация "Ventures" несколько изменилась: пострадавший в автокатастрофе Джонсон уступил место Мелу Тейлору, Эдвардс взялся за гитару, а басуха досталась Боглу. Дальнейшие изменения состава происходили не так часто, но все равно имели место. В 1968-м Эдвардс решил заняться верховой ездой и освободил инструмент для Джерри МакДжи. В 1972-м он вернулся, но примерно в это же время сбежал Тейлор, начавший сольные эксперименты. За ударные уселся Джо Бэрил, но в 1979-м за установкой вновь оказался Мел.
В начале 70-х интерес к ансамблю в Америке начал спадать, и тогда музыканты переориентировались на заграницу. Особенным спросом "Ventures" пользовались в Стране Восходящего Солнца. После ухода с "Dolton" группа основала свой собственный лейбл "Tridex Records", на котором выпускала альбомы только для японского рынка и умудрилась продать на островах свыше 40 миллионов пластинок. В 1981-м к команде присоединился Боб Спалдинг, а в 1984-м в ряды "Ventures" вернулся МакДжи. Во время японского тура 1996 года скончался Мел Тейлор, а барабаны отошли по наследству его сыну Леону. Несмотря на солидный стаж, группа сохранила активность и в третьем тысячелетии, а в 2008-м имена ее участников были занесены в "Зал Славы Рок-н-Ролла".
http://rockfaces.ru/v/ventures.htm
http://www.sandcastlevi.com/ventures/intro.html
http://en.wikipedia.org/wiki/The_Ventures
http://theventures.com
Вы не можете начинать темы
Вы не можете отвечать на сообщения
Вы не можете редактировать свои сообщения
Вы не можете удалять свои сообщения
Вы не можете голосовать в опросах
Вы не можете прикреплять файлы к сообщениям
Вы можете скачивать файлы
!ВНИМАНИЕ!

Сайт не предоставляет электронные версии произведений, а занимается лишь коллекционированием и каталогизацией ссылок, присылаемых и публикуемых на форуме нашими читателями. Если вы являетесь правообладателем какого-либо представленного материала и не желаете, чтобы ссылка на него находилась в нашем каталоге, свяжитесь с нами, и мы незамедлительно удалим ее. Файлы для обмена на трекере предоставлены пользователями сайта, и администрация не несет ответственности за их содержание. Просьба не заливать файлы, защищенные авторскими правами, а также файлы нелегального содержания!

Искали программы, игры, дополнения, музыка mp3, аниме, аудио книги, журналы? Добро пожаловать на свободный торрент трекер Torrents, у нас можно скачать бесплатно, без смс и регистрации и прочих ограничений лучшие, отборные сборки программ, игр. Скачать торрентом не составит труда даже не опытному пользователю. Раздачи ежедневно обновляются, только лучшие и качественные раздачи, подробные описания и скриншоты. Огромная коллекция программ для работы со звуком, графикой, дизайном, а так же множество плагинов и инструментов к ним с подробной инструкцией и рекомендациями. Прошивки для навигаторов, карты. Разнообразные игры, для Windows, Linux. В коллекцие есть и старые игры любых жанров, Rpg, Action, Shooter, strategy Множество дополнений, модификаций, сценариев для популярных игр в жанре экш, рпг, гонки, стратегии, логические игры. Множество аддонов и сценариев для Microsoft Flight Simulator Большая коллекция книг, учебников. Если нет возможности купить печатное издание - смело скачивайте цифровую версию книги или, быть может, журнала. Не любите читать - можно загрузить бесплатно аудикнигу. Для веб дизайнеров и программистов так же найдется множество специализированного софта, таких как: редакторы с подсветкой, среды программирования, компоненты, системы управления базами данных, разнообразные скрипты и шаблоны. Не так давно у нас появился материал для автолюбителей и владельцев мото - оригинальные и неоригинальные каталоги запчастей, книги и журналы по ремонту и обслуживанию, видеоуроки, статьи по чип тюнингу, прошивкам. Процедура получения контента элементарная, достаточно просто скачать торрент файл и добавить его в загрузку в вашем торрент клиенте. Если у вас нет специального торрент клиента, вы можете его скачать у нас.