(Instrumental Rock) [CD] The Shadows - The Shadows Volume 1 & Volume 2 (2CD) - 1992 (Universe EU), FLAC (image+.cue), lossless 

Цитировать
The Shadows - The Shadows Volume 1 & Volume 2
Жанр: Instrumental Rock
Страна-производитель диска: EU
Год издания диска: 1992
Издатель (лейбл): Universe
Номер по каталогу: UN 3 100 / UN 3 101
Страна: UK
Аудио кодек: FLAC (*.flac)
Тип рипа: image+.cue
Битрейт аудио: lossless
Продолжительность: 01:18:42
Источник (релизер): alexpika
Наличие сканов в содержимом раздачи: да (Volume 1 - discogs.com)
Треклист:

Volume 1 (00:39:24)

01. Guitar Tango (Meine, Lieferman) 02:57
02. Atlantis (Lordan) 02:45
03. Dance On (V. & E.Murtagh, Adams) 02:21
04. Theme For Young Lovers (Welch) 02:36
05. Kon-Tiki (Carr) 01:52
06. Rhythm & Greens (Welch, Marvin, Rostill, Bennett) 02:17
07. Frightened City (Paramor) 02:18
08. Quatermasters Stores (Trad. Arr. Shepherd) 02:20
09. Man Of Mystery (Carr) 01:59
10. Midnight (Welch, Marvin) 02:28
11. What A Lovely Tune (Bennett, Welch/Marvin) 02:15
12. The Boys (Bennett, Welch, Marvin) 02:29
13. Foot Tapper (Welch, Marvin) 02:32
14. Shazam (Eddy, Hazlewood) 02:16
15. Mary Ann (Lordan) 02:23
16. Stingray (Ogerman) 02:26

Лог создания рипа

Exact Audio Copy V1.0 beta 3 from 29. August 2011
EAC extraction logfile from 19. December 2016, 9:51
Shadows / The Shadows Vol. 1
Used drive : TSSTcorpCDDVDW SH-216DB Adapter: 0 ID: 0
Read mode : SecureUtilize accurate stream : YesDefeat audio cache : YesMake use of C2 pointers : No
Read offset correction : 6Overread into Lead-In and Lead-Out : NoFill up missing offset samples with silence : YesDelete leading and trailing silent blocks : NoNull samples used in CRC calculations : YesUsed interface : Native Win32 interface for Win NT & 2000
Used output format : User Defined EncoderSelected bitrate : 1024 kBit/sQuality : HighAdd ID3 tag : NoCommand line compressor : C:\Program Files (x86)\Exact Audio Copy\Flac\flac.exeAdditional command line options : -V -8 -T "Date=%year%" -T "Genre=%genre%" %source%
TOC of the extracted CD
Track | Start | Length | Start sector | End sector --------------------------------------------------------- 1 | 0:00.33 | 3:01.25 | 33 | 13632 2 | 3:01.58 | 2:49.37 | 13633 | 26344 3 | 5:51.20 | 2:24.38 | 26345 | 37182 4 | 8:15.58 | 2:39.62 | 37183 | 49169 5 | 10:55.45 | 1:56.50 | 49170 | 57919 6 | 12:52.20 | 2:22.13 | 57920 | 68582 7 | 15:14.33 | 2:22.50 | 68583 | 79282 8 | 17:37.08 | 2:25.00 | 79283 | 90157 9 | 20:02.08 | 2:03.12 | 90158 | 99394 10 | 22:05.20 | 2:32.50 | 99395 | 110844 11 | 24:37.70 | 2:20.13 | 110845 | 121357 12 | 26:58.08 | 2:33.25 | 121358 | 132857 13 | 29:31.33 | 2:36.62 | 132858 | 144619 14 | 32:08.20 | 2:20.63 | 144620 | 155182 15 | 34:29.08 | 2:28.00 | 155183 | 166282 16 | 36:57.08 | 2:27.50 | 166283 | 177357
Range status and errors
Selected range
Filename L:\Private\My Audio Ripps\ CD - RIPS\The Shadows - Volume 1\Shadows - The Shadows Vol. 1.wav
Peak level 98.1 % Extraction speed 2.4 X Range quality 100.0 % Test CRC 7DCB03F8 Copy CRC 7DCB03F8 Copy OK
No errors occurred
AccurateRip summary
Track 1 accurately ripped (confidence 2) [1B7DDC7C] (AR v2)Track 2 accurately ripped (confidence 2) [CD9A9C11] (AR v2)Track 3 accurately ripped (confidence 2) [E201C97D] (AR v2)Track 4 accurately ripped (confidence 2) [ED774086] (AR v2)Track 5 accurately ripped (confidence 2) [5E15A833] (AR v2)Track 6 accurately ripped (confidence 2) [9CE50445] (AR v2)Track 7 accurately ripped (confidence 2) [193DE097] (AR v2)Track 8 accurately ripped (confidence 2) [10037B37] (AR v2)Track 9 accurately ripped (confidence 2) [5503F119] (AR v2)Track 10 accurately ripped (confidence 2) [22EB02BB] (AR v2)Track 11 accurately ripped (confidence 2) [0E2A1526] (AR v2)Track 12 accurately ripped (confidence 2) [3FC2FAE7] (AR v2)Track 13 accurately ripped (confidence 2) [553381AF] (AR v2)Track 14 accurately ripped (confidence 2) [FD4E2324] (AR v2)Track 15 accurately ripped (confidence 2) [0A75ABE9] (AR v2)Track 16 accurately ripped (confidence 2) [8342AC1F] (AR v2)
All tracks accurately ripped
End of status report
==== Log checksum 2937E32CF2CD432E253B81A7465470CDBBD5A04DAC6615F9CD5A2BDF8E46023C ====

Содержание индексной карты (.CUE)

REM GENRE "Instrumental Rock"REM DATE 1992REM DISCID D9093C10REM COMMENT "ExactAudioCopy v1.0b3"PERFORMER "Shadows"TITLE "The Shadows Vol. 1"FILE "Shadows - The Shadows Vol. 1.flac" WAVE  TRACK 01 AUDIO    TITLE "Guitar Tango"    PERFORMER "Shadows"    INDEX 00 00:00:00    INDEX 01 00:00:33  TRACK 02 AUDIO    TITLE "Atlantis"    PERFORMER "Shadows"    INDEX 00 02:59:08    INDEX 01 03:01:58  TRACK 03 AUDIO    TITLE "Dance On"    PERFORMER "Shadows"    INDEX 00 05:47:45    INDEX 01 05:51:20  TRACK 04 AUDIO    TITLE "Theme For The Young Lovers"    PERFORMER "Shadows"    INDEX 00 08:12:70    INDEX 01 08:15:58  TRACK 05 AUDIO    TITLE "Kon-Tiki"    PERFORMER "Shadows"    INDEX 00 10:52:70    INDEX 01 10:55:45  TRACK 06 AUDIO    TITLE "Rhythm & Greens"    PERFORMER "Shadows"    INDEX 00 12:47:70    INDEX 01 12:52:20  TRACK 07 AUDIO    TITLE "Frightened City"    PERFORMER "Shadows"    INDEX 00 15:10:58    INDEX 01 15:14:33  TRACK 08 AUDIO    TITLE "Quartermasters Stores"    PERFORMER "Shadows"    INDEX 00 17:33:33    INDEX 01 17:37:08  TRACK 09 AUDIO    TITLE "Man Of Mistery"    PERFORMER "Shadows"    INDEX 00 19:58:08    INDEX 01 20:02:08  TRACK 10 AUDIO    TITLE "Midnight"    PERFORMER "Shadows"    INDEX 00 22:01:45    INDEX 01 22:05:20  TRACK 11 AUDIO    TITLE "What A Lovely Tune"    PERFORMER "Shadows"    INDEX 00 24:33:70    INDEX 01 24:37:70  TRACK 12 AUDIO    TITLE "The Boys"    PERFORMER "Shadows"    INDEX 00 26:54:33    INDEX 01 26:58:08  TRACK 13 AUDIO    TITLE "Foot Tapper"    PERFORMER "Shadows"    INDEX 00 29:27:70    INDEX 01 29:31:33  TRACK 14 AUDIO    TITLE "Shazam"    PERFORMER "Shadows"    INDEX 00 32:04:33    INDEX 01 32:08:20  TRACK 15 AUDIO    TITLE "Mary Ann"    PERFORMER "Shadows"    INDEX 00 34:25:33    INDEX 01 34:29:08  TRACK 16 AUDIO    TITLE "Stingray"    PERFORMER "Shadows"    INDEX 00 36:53:33    INDEX 01 36:57:08

Лог проверки качества

-----------------------
DON'T MODIFY THIS FILE
-----------------------
PERFORMER: auCDtect Task Manager, ver. 1.5.1RC4 build 1.5.1.5Copyright (c) 2008-2010 y-soft. All rights reservedhttp://y-soft.org
ANALYZER: auCDtect: CD records authenticity detector, version 0.8.2Copyright (c) 2004 Oleg Berngardt. All rights reserved.Copyright (c) 2004 Alexander Djourik. All rights reserved.
FILE: Shadows - The Shadows Vol. 1.flac Size: 224439309 Hash: 8FDBFC5A82CDD0F94BEB2A3F71177EDC Accuracy: -m0 Conclusion: MPEG 95% Signature: 0296C6F71E0BED2C62A3F4589D76CC2A6FA169BC

Замер динамического диапазона

foobar2000 1.3.9 / Замер динамического диапазона (DR) 1.1.1Дата отчёта:  2016-12-21 10:42:19
--------------------------------------------------------------------------------Анализ: Shadows / The Shadows Vol. 1--------------------------------------------------------------------------------
DR Пики RMS Продолжительность трека--------------------------------------------------------------------------------DR11 -4.51 дБ -18.13 дБ 3:01 1-Guitar TangoDR11 -2.32 дБ -16.69 дБ 2:49 2-AtlantisDR13 -2.46 дБ -17.11 дБ 2:25 3-Dance OnDR11 -2.71 дБ -16.48 дБ 2:40 4-Theme For The Young LoversDR13 -1.41 дБ -18.09 дБ 1:57 5-Kon-TikiDR12 -2.82 дБ -16.56 дБ 2:22 6-Rhythm & GreensDR13 -1.07 дБ -18.48 дБ 2:23 7-Frightened CityDR10 -2.09 дБ -15.66 дБ 2:25 8-Quartermasters StoresDR11 -4.11 дБ -17.39 дБ 2:03 9-Man Of MisteryDR13 -2.16 дБ -17.36 дБ 2:33 10-MidnightDR12 -0.68 дБ -18.09 дБ 2:20 11-What A Lovely TuneDR10 -3.39 дБ -14.85 дБ 2:33 12-The BoysDR13 -2.92 дБ -19.06 дБ 2:37 13-Foot TapperDR12 -1.37 дБ -16.82 дБ 2:21 14-ShazamDR10 -4.10 дБ -17.45 дБ 2:28 15-Mary AnnDR13 -0.16 дБ -17.11 дБ 2:28 16-Stingray--------------------------------------------------------------------------------
Количество треков: 16Реальные значения DR: DR12
Частота: 44100 ГцКаналов: 2Разрядность: 16Битрейт: 759 кбит/сКодек: FLAC================================================================================

Volume 2 (00:39:18)

01. Wonderful Land (Lordan) 03:12
02. Geronimo (Marvin, Welch) 03:13
03. The Stranger (Crompton, Jones) 03:07
04. Stars Fell On Stockton (Welch, Marvin, Harris, Bennett) 04:01
05. Shindig (Marvin, Welch) 02:55
06. South Of The Border (Kennedy, Carr) 02:56
07. The Savage (Paramor) 04:25
08. Geni With The LIGHT Brown Lamp (Welch, Marvin, Rostill, Bennett) 03:40
09. F.B.I. (Gormley) 01:32
10. The Breeze And I (Stillman, Lecuona) 03:37
11. 36-24-36 (Welch, Marvin, Harris, Meehan) 05:25
12. The Rise And Fall Of Flingle Bunt (Welch, Marvin, Rostill, Bennett) 03:23
13. Peace Pipe (Paramor) 03:05
14. The Drummer Number (Welch, Marvin, Rostill, Bennett) 03:49
15. Don't Make My Baby Blue (Mann, Weil) 02:14
16. Apache (Lordan) 01:01

Лог создания рипа

Exact Audio Copy V1.0 beta 3 from 29. August 2011
EAC extraction logfile from 19. December 2016, 11:52
Shadows / The Shadows Vol. 2
Used drive : TSSTcorpCDDVDW SH-216DB Adapter: 0 ID: 0
Read mode : SecureUtilize accurate stream : YesDefeat audio cache : YesMake use of C2 pointers : No
Read offset correction : 6Overread into Lead-In and Lead-Out : NoFill up missing offset samples with silence : YesDelete leading and trailing silent blocks : NoNull samples used in CRC calculations : YesUsed interface : Native Win32 interface for Win NT & 2000
Used output format : User Defined EncoderSelected bitrate : 1024 kBit/sQuality : HighAdd ID3 tag : NoCommand line compressor : C:\Program Files (x86)\Exact Audio Copy\Flac\flac.exeAdditional command line options : -V -8 -T "Date=%year%" -T "Genre=%genre%" %source%
TOC of the extracted CD
Track | Start | Length | Start sector | End sector --------------------------------------------------------- 1 | 0:00.32 | 2:04.13 | 32 | 9344 2 | 2:04.45 | 2:22.50 | 9345 | 20044 3 | 4:27.20 | 2:40.00 | 20045 | 32044 4 | 7:07.20 | 2:18.00 | 32045 | 42394 5 | 9:25.20 | 2:20.25 | 42395 | 52919 6 | 11:45.45 | 3:19.62 | 52920 | 67906 7 | 15:05.32 | 2:25.38 | 67907 | 78819 8 | 17:30.70 | 2:42.50 | 78820 | 91019 9 | 20:13.45 | 2:23.00 | 91020 | 101744 10 | 22:36.45 | 2:50.50 | 101745 | 114544 11 | 25:27.20 | 1:41.12 | 114545 | 122131 12 | 27:08.32 | 2:47.38 | 122132 | 134694 13 | 29:55.70 | 2:16.00 | 134695 | 144894 14 | 32:11.70 | 1:59.50 | 144895 | 153869 15 | 34:11.45 | 2:14.62 | 153870 | 163981 16 | 36:26.32 | 2:52.13 | 163982 | 176894
Range status and errors
Selected range
Filename L:\Private\My Audio Ripps\ CD - RIPS\The Shadows Volume 2\Shadows - The Shadows Vol. 2.wav
Peak level 98.9 % Extraction speed 2.4 X Range quality 100.0 % Test CRC EA44612E Copy CRC EA44612E Copy OK
No errors occurred
AccurateRip summary
Track 1 accurately ripped (confidence 4) [8E7015B3] (AR v2)Track 2 accurately ripped (confidence 4) [D8F5E2EA] (AR v2)Track 3 accurately ripped (confidence 4) [88953E79] (AR v2)Track 4 accurately ripped (confidence 4) [3A6DCD04] (AR v2)Track 5 accurately ripped (confidence 4) [3E39B07B] (AR v2)Track 6 accurately ripped (confidence 4) [620D35F1] (AR v2)Track 7 accurately ripped (confidence 4) [653CB6D2] (AR v2)Track 8 accurately ripped (confidence 4) [66700FBE] (AR v2)Track 9 accurately ripped (confidence 4) [A3C9BC11] (AR v2)Track 10 accurately ripped (confidence 4) [B02D6B06] (AR v2)Track 11 accurately ripped (confidence 4) [0291FEE2] (AR v2)Track 12 accurately ripped (confidence 4) [3362EA18] (AR v2)Track 13 accurately ripped (confidence 4) [99C95368] (AR v2)Track 14 accurately ripped (confidence 4) [8CBCE662] (AR v2)Track 15 accurately ripped (confidence 4) [49DAE069] (AR v2)Track 16 accurately ripped (confidence 4) [0029D5CC] (AR v2)
All tracks accurately ripped
End of status report
==== Log checksum 15A0190F6CC66D9DD79910B4FEF8313E06044FC775FA6EEF2EA2DC1C3EA749E4 ====

Содержание индексной карты (.CUE)

REM GENRE "Instrumental Rock"REM DATE 1992REM DISCID DD093610REM COMMENT "ExactAudioCopy v1.0b3"PERFORMER "Shadows"TITLE "The Shadows Vol. 2"FILE "Shadows - The Shadows Vol. 2.flac" WAVE  TRACK 01 AUDIO    TITLE "Wonderful World"    PERFORMER "Shadows"    INDEX 00 00:00:00    INDEX 01 00:00:32  TRACK 02 AUDIO    TITLE "Geronimo"    PERFORMER "Shadows"    INDEX 00 02:01:45    INDEX 01 02:04:45  TRACK 03 AUDIO    TITLE "The Stranger"    PERFORMER "Shadows"    INDEX 00 04:23:32    INDEX 01 04:27:20  TRACK 04 AUDIO    TITLE "Stars Fell On Stockton"    PERFORMER "Shadows"    INDEX 00 07:04:20    INDEX 01 07:07:20  TRACK 05 AUDIO    TITLE "Shinding"    PERFORMER "Shadows"    INDEX 00 09:21:45    INDEX 01 09:25:20  TRACK 06 AUDIO    TITLE "South Of The Border"    PERFORMER "Shadows"    INDEX 00 11:41:45    INDEX 01 11:45:45  TRACK 07 AUDIO    TITLE "The Savage"    PERFORMER "Shadows"    INDEX 00 15:02:07    INDEX 01 15:05:32  TRACK 08 AUDIO    TITLE "Genie With The Brown Lamp"    PERFORMER "Shadows"    INDEX 00 17:27:07    INDEX 01 17:30:70  TRACK 09 AUDIO    TITLE "FBI"    PERFORMER "Shadows"    INDEX 00 20:10:20    INDEX 01 20:13:45  TRACK 10 AUDIO    TITLE "The Breeze And I"    PERFORMER "Shadows"    INDEX 00 22:31:70    INDEX 01 22:36:45  TRACK 11 AUDIO    TITLE "36-24-36"    PERFORMER "Shadows"    INDEX 00 25:24:07    INDEX 01 25:27:20  TRACK 12 AUDIO    TITLE "The Rise And Fall Of Flingel Bunt"    PERFORMER "Shadows"    INDEX 00 27:05:32    INDEX 01 27:08:32  TRACK 13 AUDIO    TITLE "Peace Pipe"    PERFORMER "Shadows"    INDEX 00 29:52:70    INDEX 01 29:55:70  TRACK 14 AUDIO    TITLE "The Drummer Number"    PERFORMER "Shadows"    INDEX 00 32:06:70    INDEX 01 32:11:70  TRACK 15 AUDIO    TITLE "Don't Make My Baby Blue"    PERFORMER "Shadows"    INDEX 00 34:06:20    INDEX 01 34:11:45  TRACK 16 AUDIO    TITLE "Apache"    PERFORMER "Shadows"    INDEX 00 36:24:07    INDEX 01 36:26:32

Лог проверки качества

-----------------------
DON'T MODIFY THIS FILE
-----------------------
PERFORMER: auCDtect Task Manager, ver. 1.5.1RC4 build 1.5.1.5Copyright (c) 2008-2010 y-soft. All rights reservedhttp://y-soft.org
ANALYZER: auCDtect: CD records authenticity detector, version 0.8.2Copyright (c) 2004 Oleg Berngardt. All rights reserved.Copyright (c) 2004 Alexander Djourik. All rights reserved.
FILE: Shadows - The Shadows Vol. 2.flac Size: 224775746 Hash: 2E7161BCEEED8022E1E1D2AA8E2A338B Accuracy: -m0 Conclusion: CDDA 100% Signature: 4DFDF2451C72C7FA815CB395E89F9DB65282C796

Замер динамического диапазона

foobar2000 1.3.9 / Замер динамического диапазона (DR) 1.1.1Дата отчёта:  2016-12-21 10:41:55
--------------------------------------------------------------------------------Анализ: Shadows / The Shadows Vol. 2--------------------------------------------------------------------------------
DR Пики RMS Продолжительность трека--------------------------------------------------------------------------------DR9 -1.16 дБ -14.28 дБ 2:04 1-Wonderful WorldDR11 -2.58 дБ -15.70 дБ 2:23 2-GeronimoDR12 -2.30 дБ -16.50 дБ 2:40 3-The StrangerDR13 -0.23 дБ -17.46 дБ 2:18 4-Stars Fell On StocktonDR12 -3.11 дБ -16.66 дБ 2:20 5-ShindingDR14 -2.63 дБ -18.67 дБ 3:20 6-South Of The BorderDR11 -1.65 дБ -16.69 дБ 2:26 7-The SavageDR11 -2.77 дБ -16.85 дБ 2:43 8-Genie With The Brown LampDR10 -3.89 дБ -16.00 дБ 2:23 9-FBIDR12 -2.55 дБ -16.90 дБ 2:51 10-The Breeze And IDR13 -3.39 дБ -19.30 дБ 1:41 11-36-24-36DR11 -2.81 дБ -15.52 дБ 2:48 12-The Rise And Fall Of Flingel BuntDR12 -1.11 дБ -16.99 дБ 2:16 13-Peace PipeDR12 -2.88 дБ -16.06 дБ 2:00 14-The Drummer NumberDR11 -2.45 дБ -15.82 дБ 2:15 15-Don't Make My Baby BlueDR12 -0.09 дБ -15.61 дБ 2:52 16-Apache--------------------------------------------------------------------------------
Количество треков: 16Реальные значения DR: DR12
Частота: 44100 ГцКаналов: 2Разрядность: 16Битрейт: 762 кбит/сКодек: FLAC================================================================================
Доп. информация

Состав

Current members:
Hank Marvin – lead guitar (1958–1970, 1973–1990, 2004–2015)
Bruce Welch – rhythm guitar (1958–1968, 1973–1990, 2004–2015)
Brian Bennett – drums (1961–1970, 1973–1990, 2004–2015)
Mark Griffiths – bass (1989–1990, 2004–2015)
Warren Bennett – keyboards, percussion, harmonica, guitar (2004–2015)
Former members:
Jet Harris – bass (1959–1962); died 2011
Tony Meehan – drums (1959–1961); died 2005
Brian Locking – bass (1962–1963)
John Rostill – bass (1963–1970); died 1973
Alan Hawkshaw – keyboards (1969–1970)
John Farrar – guitar (1973–1977)
Alan Tarney – bass (1973–1977)
Cliff Hall – keyboards (1977–1990; 2004–2005)
Alan Jones – bass (1977–1989)

Об исполнителе

"The Shadows" - один из наиболее успешных британских ансамблей, активно трудившийся на сингловом рынке и прорывавшийся в национальный чарт около 70 раз (половину из них вместе с Клиффом Ричардом). В начале 1958 года гитаристы Хэнк Марвин (Брайан Робсон Рэнкин, р. 28 октября 1941) и Брюс Уэлч (Брюс Криппс, р. 2 ноября 1941) прибыли из Ньюкасла в Лондон в составе скиффл-группы "The Railroaders" для участия в конкурсе молодых талантов. По окончании мероприятия их команда вернулась домой, но Хэнк и Брюс остались искать счастья в столице. Вместе с тремя другими конкурсантами они сколотили бэнд "Five Chesternuts", однако вскоре были приглашены поработать на сопровождении у восходящей звезды Клиффа Ричарда. В течение американского тура к "The Drifters" (так именовался в то время ансамбль) присоединился бас-гитарист Джет Харрис (Теренс Харрис, р. 6 июля 1939), а в феврале 1959-го ушедшего барабанщика Терри Смарта сменил Тони Миэн (р. 2 марта 1943, у. 28 ноября 2005), и таким образом команда приобрела свой классический вид. Музыканты успевали не только трудиться в подмастерьях у Клиффа, но и пробовали выпускать собственные синглы, причем наряду с инструменталами включали в репертуар и вокальные номера.
Вскоре выяснилось, что в Америке уже существует группа под названием "The Drifters", и во избежание дальнейших недоразумений коллектив сменил вывеску на "The Shadows". Первый же сингл с вокальными треками, выпущенный под новым именем, провалился, но не прошло и нескольких месяцев, как команда штурмом взяла чарты с очаровательной инструменталкой Джерри Лордана "Apache". Композиция провела на вершине национального хит-парада 6 недель и положила начало длинной веренице "теневых" шлягеров. Вплоть до 1967 года любой релиз от "Shadows" присутствовал в списках популярности, а за это время наряду с "Apache" в Топ 5 попали еще четыре вещи: "Kon-Tiki", "Wonderful Land", "Dance On" и "Foot Tapper". Дебютный альбом группы также стал чарттоппером, потеснив топтавшихся в горячей десятке американских исполнителей.
Осенью 1961-го, когда ансамбль находился на пике успеха, Миэна сменил Брайан Беннетт (р. 9 февраля 1940), а спустя несколько месяцев место Джета занял Брайан Локинг. В 1963-м последнего из них сманили к себе "свидетели Иеговы", и бас перешел в руки Джона Ростилла. Получившаяся конфигурация оказалась довольно устойчивой и, продолжая сопровождать Ричарда и в студии, и на съемочных площадках, и на гастролях, успешно проработала целых пять лет, выпустив за это время такое же число собственных альбомов. Впрочем, уже в 1968-м, когда "Cliff Richard And The Shadows" записали юбилейную пластинку "Established 1958", отношения в коллективе разладились настолько, что команду пришлось распустить. Первая попытка реюниона была предпринята в 1969-м, когда вместо Уэлча в составе появился клавишник Алан Хокшоу. Новый вариант "Shadows" провел гастроли в Англии и Японии, выпустил один из лучших своих синглов "Slaughter On Tenth Avenue" и записал неудачный альбом "Shades Of Rock", в который вошли инструментальные каверы шестидесятнической рок-классики (Chuck Berry, "Beatles", "Rolling Stones" и т.п.).
После вторичного распада Хэнк и Брайан занялись сольными делами, но позже Марвин воссоединился с Уэлчем, и вместе с австралийцем Джоном Фарраром организовал группу, работавшую в духе "Crosby, Stills & Nash". На самом деле, вокализированный вест-кост нового ансамбля коммерческого успеха не имел, а на концертах публика требовала исполнения знаменитых "теневых" номеров "Apache" и "FBI". В конечном итоге имя "The Shadows" вновь было возвращено на свет (благо за барабанами опять сидел Беннетт), а истосковавшиеся по своим кумирам слушатели получили в подарок неплохой альбом "Rockin' With Curly Leads". В 1975 году подготовленная для Евровидения композиция "Let Me Be The One" (с вокалом Фаррара) вернула команду в чарты (12-е место), а в 1977-м ансамбль закрепился на завоеванных рубежах с помощью сборника нетленок "20 Golden Greats".
Тем временем Фаррар вслед за своей пассией Оливией Ньютон-Джон перебрался в Америку, тогдашний басист Алан Тарни тоже уволился, и Марвину, Уэлчу и Беннетту пришлось восполнять пробелы с помощью наемных рекрутов. К сожалению, из-за плохого промоушена альбом "Tasty" потерпел фиаско, но зато "Shadows" успешно провели юбилейные 20-летние гастроли в компании с Ричардом. К концу декады к ансамблю примкнул клавишник Клифф Холл, чей джазовый стиль настолько понравился ведущей троице, что тот пробыл среди "теней" следующие 12 лет. В ноябре 1978-го команда пробила лучшую пятерку синглом "Don't Cry For Me Argentina", а еще один удачный миньон "Cavatina" привел к выпуску не менее успешного альбома "String Of Hits", составленного из инструментальных обработок поп- и рок-стандартов. Почувствовав благоволение Фортуны, музыканты решили обновить свой контракт с "EMI" и выкупить права на свои ранние записи. К сожалению, переговоры, продлившиеся несколько месяцев, зашли в тупик, и "The Shadows" пришлось перебазироваться под крышу "Polydor". Смена прописки отразилась в названии пластинки "Change Of Address", в которую наряду с оригинальными номерами попали заимствования у Моцарта и Жана-Мишеля Жарра.
Вообще, в 80-х в творчестве группы превалировали каверы, поскольку публика принимала их более тепло. Конечно, встречались и собственные интересные вещи (на альбомах "Life In The Jungle" и "Guardian Angel"), но после провала 1984 года поползновения создать полностью оригинальную полнометражку прекратились. Между тем, туры "Shadows" проходили на ура, а их композиции беспрерывно звучали на радио и ТВ, но в 1990-м заявление об отставке Беннетта послужило причиной очередного закрытия проекта. Спустя 14 лет Хэнк, Брюс и Брайан воссоединились для проведения прощального тура, а в 2009-м все трое составили гастрольную компанию Клиффу Ричарду.
http://rockfaces.ru/s/shadows.htm
http://en.wikipedia.org/wiki/The_Shadows
Вы не можете начинать темы
Вы не можете отвечать на сообщения
Вы не можете редактировать свои сообщения
Вы не можете удалять свои сообщения
Вы не можете голосовать в опросах
Вы не можете прикреплять файлы к сообщениям
Вы можете скачивать файлы
!ВНИМАНИЕ!

Сайт не предоставляет электронные версии произведений, а занимается лишь коллекционированием и каталогизацией ссылок, присылаемых и публикуемых на форуме нашими читателями. Если вы являетесь правообладателем какого-либо представленного материала и не желаете, чтобы ссылка на него находилась в нашем каталоге, свяжитесь с нами, и мы незамедлительно удалим ее. Файлы для обмена на трекере предоставлены пользователями сайта, и администрация не несет ответственности за их содержание. Просьба не заливать файлы, защищенные авторскими правами, а также файлы нелегального содержания!

Искали программы, игры, дополнения, музыка mp3, аниме, аудио книги, журналы? Добро пожаловать на свободный торрент трекер Torrents, у нас можно скачать бесплатно, без смс и регистрации и прочих ограничений лучшие, отборные сборки программ, игр. Скачать торрентом не составит труда даже не опытному пользователю. Раздачи ежедневно обновляются, только лучшие и качественные раздачи, подробные описания и скриншоты. Огромная коллекция программ для работы со звуком, графикой, дизайном, а так же множество плагинов и инструментов к ним с подробной инструкцией и рекомендациями. Прошивки для навигаторов, карты. Разнообразные игры, для Windows, Linux. В коллекцие есть и старые игры любых жанров, Rpg, Action, Shooter, strategy Множество дополнений, модификаций, сценариев для популярных игр в жанре экш, рпг, гонки, стратегии, логические игры. Множество аддонов и сценариев для Microsoft Flight Simulator Большая коллекция книг, учебников. Если нет возможности купить печатное издание - смело скачивайте цифровую версию книги или, быть может, журнала. Не любите читать - можно загрузить бесплатно аудикнигу. Для веб дизайнеров и программистов так же найдется множество специализированного софта, таких как: редакторы с подсветкой, среды программирования, компоненты, системы управления базами данных, разнообразные скрипты и шаблоны. Не так давно у нас появился материал для автолюбителей и владельцев мото - оригинальные и неоригинальные каталоги запчастей, книги и журналы по ремонту и обслуживанию, видеоуроки, статьи по чип тюнингу, прошивкам. Процедура получения контента элементарная, достаточно просто скачать торрент файл и добавить его в загрузку в вашем торрент клиенте. Если у вас нет специального торрент клиента, вы можете его скачать у нас.