(Instrumental Guitar/Hard Rock) [CD] Dario Lorina - Death Grip Tribulations - 2017, FLAC (image+.cue), lossless 

Цитировать
Dario Lorina / Death Grip Tribulations

Жанр: Instrumental Guitar/Hard Rock
Носитель: CD
Страна-производитель диска (релиза): USA
Год издания: 2017
Издатель (лейбл): SHRAPNEL RECORDS
Номер по каталогу: SH1300-2
Страна исполнителя (группы): USA
Аудиокодек: FLAC (*.flac)
Тип рипа: image+.cue
Битрейт аудио: lossless
Продолжительность: 53:20
Источник (релизер): kikel (спасибо !)
Наличие сканов в содержимом раздачи: да
Треклист:
01. Rituals (3:30)
02. Echoes of a Stone Heart (5:10)
03. Two Fifty (Feat. Phil Campbell) (5:16)
04. Guardian (4:16)
05. Waves of Nostalgia (5:32)
06. Heart of Night (4:03)
07. Fire Sign (3:28)
08. Death Grip Tribulations (5:24)
09. Same Dice (4:25)
10. Hollowing (5:00)
11. Perigee (4:03)
12. Distant Shores (3:14)

Лог создания рипа

Exact Audio Copy V1.3 from 2. September 2016
Отчёт EAC об извлечении, выполненном 2. февраля 2018, 19:23
Dario Lorina / Death Grip Tribulations
Дисковод: HL-DT-STDVDRAM GU40N Adapter: 0 ID: 1
Режим чтения : ДостоверностьИспользование точного потока : ДаОтключение кэша аудио : ДаИспользование указателей C2 : Нет
Коррекция смещения при чтении : 103Способность читать области Lead-in и Lead-out : НетЗаполнение пропущенных сэмплов тишиной : ДаУдаление блоков с тишиной в начале и конце : НетПри вычислениях CRC использовались нулевые сэмплы : ДаИнтерфейс : Установленный внешний ASPI-интерфейс
Выходной формат : Пользовательский кодировщикВыбранный битрейт : 320 kBit/sКачество : ВысокийДобавление ID3-тега : ДаУтилита сжатия : C:\Users\workutagin\Desktop\EZCDAudioConverter6051BALTAGY\64Bit\EZ CD Audio Converter.exeДополнительные параметры : -V -8 -T "Date=%year%" -T "Genre=%genre%" %source%
TOC извлечённого CD
Трек | Старт | Длительность | Начальный сектор | Конечный сектор --------------------------------------------------------------------- 1 | 0:00.00 | 3:29.66 | 0 | 15740 2 | 3:29.66 | 5:09.51 | 15741 | 38966 3 | 8:39.42 | 5:15.66 | 38967 | 62657 4 | 13:55.33 | 4:15.48 | 62658 | 81830 5 | 18:11.06 | 5:32.09 | 81831 | 106739 6 | 23:43.15 | 4:02.45 | 106740 | 124934 7 | 27:45.60 | 3:28.27 | 124935 | 140561 8 | 31:14.12 | 5:23.57 | 140562 | 164843 9 | 36:37.69 | 4:24.43 | 164844 | 184686 10 | 41:02.37 | 5:00.14 | 184687 | 207200 11 | 46:02.51 | 4:03.26 | 207201 | 225451 12 | 50:06.02 | 3:14.21 | 225452 | 240022
Характеристики диапазона извлечения и сообщения об ошибках
Выбранный диапазон
Имя файла C:\Users\workutagin\Desktop\Dario Lorina - Death Grip Tribulations 2017\Dario Lorina - Death Grip Tribulations.wav
Пиковый уровень 100.0 % Скорость извлечения 2.1 X Качество диапазона 100.0 % CRC теста 12A63727 CRC копии 12A63727 Копирование... OK
Ошибок не произошло
AccurateRip: сводка
Трек 1 : извлечено точно (доверие 2) [A0256BEA] (AR v2)Трек 2 : извлечено точно (доверие 2) [33FB624A] (AR v2)Трек 3 : извлечено точно (доверие 2) [1FA2EA45] (AR v2)Трек 4 : извлечено точно (доверие 2) [53FCB6AB] (AR v2)Трек 5 : извлечено точно (доверие 2) [2636352F] (AR v2)Трек 6 : извлечено точно (доверие 2) [1642E489] (AR v2)Трек 7 : извлечено точно (доверие 2) [1DAFA811] (AR v2)Трек 8 : извлечено точно (доверие 2) [5F157B21] (AR v2)Трек 9 : извлечено точно (доверие 2) [8D91A98E] (AR v2)Трек 10 : извлечено точно (доверие 2) [4D0DF2A1] (AR v2)Трек 11 : извлечено точно (доверие 2) [50DCEB0E] (AR v2)Трек 12 : извлечено точно (доверие 2) [AD554F4D] (AR v2)
Все треки извлечены точно
Конец отчёта
---- CUETools DB Plugin V2.1.6
[CTDB TOCID: fAUeXAES2qlBxASay3gBUzmLcvA-] foundSubmit result: fAUeXAES2qlBxASay3gBUzmLcvA- has been confirmedTrack | CTDB Status 1 | (3/3) Accurately ripped 2 | (3/3) Accurately ripped 3 | (3/3) Accurately ripped 4 | (3/3) Accurately ripped 5 | (3/3) Accurately ripped 6 | (3/3) Accurately ripped 7 | (3/3) Accurately ripped 8 | (3/3) Accurately ripped 9 | (3/3) Accurately ripped 10 | (3/3) Accurately ripped 11 | (3/3) Accurately ripped 12 | (3/3) Accurately ripped

Лог DRM

foobar2000 1.2.9 / Dynamic Range Meter 1.1.1log date: 2018-02-04 12:33:41
--------------------------------------------------------------------------------Analyzed: Dario Lorina / Death Grip Tribulations--------------------------------------------------------------------------------
DR Peak RMS Duration Track--------------------------------------------------------------------------------DR6 0.00 dB -7.92 dB 3:30 01-RitualsDR6 0.00 dB -7.31 dB 5:10 02-Echoes of a Stone HeartDR7 0.00 dB -7.50 dB 5:16 03-Two Fifty (Feat. Phil Campbell)DR5 0.00 dB -6.61 dB 4:16 04-GuardianDR6 0.00 dB -8.09 dB 5:32 05-Waves of NostalgiaDR6 -1.60 dB -10.11 dB 4:03 06-Heart of NightDR6 0.00 dB -7.62 dB 3:28 07-Fire SignDR6 0.00 dB -6.92 dB 5:24 08-Death Grip TribulationsDR6 0.00 dB -8.59 dB 4:25 09-Same DiceDR11 -0.18 dB -13.17 dB 5:00 10-HollowingDR8 0.00 dB -8.56 dB 4:03 11-PerigeeDR5 0.00 dB -6.78 dB 3:14 12-Distant Shores--------------------------------------------------------------------------------
Number of tracks: 12Official DR value: DR7
Samplerate: 44100 HzChannels: 2Bits per sample: 16Bitrate: 955 kbpsCodec: FLAC================================================================================

Об исполнителе (группе)

http://rutracker.org/forum/tracker.php?f=1710,1711&nm=Dario%20Lorina

Музыканты

Вы не можете начинать темы
Вы не можете отвечать на сообщения
Вы не можете редактировать свои сообщения
Вы не можете удалять свои сообщения
Вы не можете голосовать в опросах
Вы не можете прикреплять файлы к сообщениям
Вы можете скачивать файлы
!ВНИМАНИЕ!

Сайт не предоставляет электронные версии произведений, а занимается лишь коллекционированием и каталогизацией ссылок, присылаемых и публикуемых на форуме нашими читателями. Если вы являетесь правообладателем какого-либо представленного материала и не желаете, чтобы ссылка на него находилась в нашем каталоге, свяжитесь с нами, и мы незамедлительно удалим ее. Файлы для обмена на трекере предоставлены пользователями сайта, и администрация не несет ответственности за их содержание. Просьба не заливать файлы, защищенные авторскими правами, а также файлы нелегального содержания!

Искали программы, игры, дополнения, музыка mp3, аниме, аудио книги, журналы? Добро пожаловать на свободный торрент трекер Torrents, у нас можно скачать бесплатно, без смс и регистрации и прочих ограничений лучшие, отборные сборки программ, игр. Скачать торрентом не составит труда даже не опытному пользователю. Раздачи ежедневно обновляются, только лучшие и качественные раздачи, подробные описания и скриншоты. Огромная коллекция программ для работы со звуком, графикой, дизайном, а так же множество плагинов и инструментов к ним с подробной инструкцией и рекомендациями. Прошивки для навигаторов, карты. Разнообразные игры, для Windows, Linux. В коллекцие есть и старые игры любых жанров, Rpg, Action, Shooter, strategy Множество дополнений, модификаций, сценариев для популярных игр в жанре экш, рпг, гонки, стратегии, логические игры. Множество аддонов и сценариев для Microsoft Flight Simulator Большая коллекция книг, учебников. Если нет возможности купить печатное издание - смело скачивайте цифровую версию книги или, быть может, журнала. Не любите читать - можно загрузить бесплатно аудикнигу. Для веб дизайнеров и программистов так же найдется множество специализированного софта, таких как: редакторы с подсветкой, среды программирования, компоненты, системы управления базами данных, разнообразные скрипты и шаблоны. Не так давно у нас появился материал для автолюбителей и владельцев мото - оригинальные и неоригинальные каталоги запчастей, книги и журналы по ремонту и обслуживанию, видеоуроки, статьи по чип тюнингу, прошивкам. Процедура получения контента элементарная, достаточно просто скачать торрент файл и добавить его в загрузку в вашем торрент клиенте. Если у вас нет специального торрент клиента, вы можете его скачать у нас.