(Instrumental Rock) [CD] Reggie Young - Forever Young - 2017, FLAC (tracks+.cue), lossless 

Цитировать
Reggie Young / Forever Young
Жанр: Instrumental Rock
Носитель: CD
Год издания: 2017
Издатель (лейбл): Ace Records
Номер по каталогу: CDCHD 1500
Страна исполнителя (группы): USA
Аудиокодек: FLAC (*.flac)
Тип рипа: tracks+.cue
Битрейт аудио: lossless
Продолжительность: 39:36
Источник (релизер): jonesy
Наличие сканов в содержимом раздачи: нет
Треклист:
01. Coming Home To Leipers Fork (04:37)
02. Memphis Grease (06:50)
03. Soul Love (04:25)
04. Seagrove Place (06:57)
05. It's About Time (06:22)
06. Exit 209 (04:59)
07. Jennifer (05:26)

Лог создания рипа

Exact Audio Copy V1.3 from 2. September 2016
EAC extraction logfile from 23. November 2017, 0:29
Reggie Young / Forever Young
Used drive : PLDS DVD-RW DA8AESH Adapter: 1 ID: 0
Read mode : SecureUtilize accurate stream : YesDefeat audio cache : YesMake use of C2 pointers : No
Read offset correction : 6Overread into Lead-In and Lead-Out : NoFill up missing offset samples with silence : YesDelete leading and trailing silent blocks : NoNull samples used in CRC calculations : YesUsed interface : Native Win32 interface for Win NT & 2000Gap handling : Appended to previous track
Used output format : User Defined EncoderSelected bitrate : 1024 kBit/sQuality : HighAdd ID3 tag : NoCommand line compressor : C:\Program Files (x86)\Exact Audio Copy\Flac\flac.exeAdditional command line options : -8 -e -p -V -T "ARTIST=%artist%" -T "TITLE=%title%" -T "ALBUM=%albumtitle%" -T "DATE=%year%" -T "TRACKNUMBER=%tracknr%" -T "GENRE=%genre%" -T "PERFORMER=%albuminterpret%" -T "COMPOSER=%composer%" %haslyrics%--tag-from-file=LYRICS="%lyricsfile%"%haslyrics% -T "ALBUMARTIST=%albumartist%" -T "DISCNUMBER=%cdnumber%" -T "TOTALDISCS=%totalcds%" -T "TOTALTRACKS=%numtracks%" -T "COMMENT=%comment%" %source% -o %dest%
TOC of the extracted CD
Track | Start | Length | Start sector | End sector --------------------------------------------------------- 1 | 0:00.00 | 4:37.60 | 0 | 20834 2 | 4:37.60 | 6:49.68 | 20835 | 51577 3 | 11:27.53 | 4:24.70 | 51578 | 71447 4 | 15:52.48 | 6:57.22 | 71448 | 102744 5 | 22:49.70 | 6:22.14 | 102745 | 131408 6 | 29:12.09 | 4:58.71 | 131409 | 153829 7 | 34:11.05 | 5:26.18 | 153830 | 178297
Track 1
Filename C:\EAC Rips\[2017] Reggie Young - Forever Young (FLAC)\01 Coming Home To Leipers Fork.wav
Pre-gap length 0:00:02.00
Peak level 96.5 % Extraction speed 1.2 X Track quality 100.0 % Test CRC 01652B35 Copy CRC 01652B35 Accurately ripped (confidence 2) [4BE88F35] (AR v2) Copy OK
Track 2
Filename C:\EAC Rips\[2017] Reggie Young - Forever Young (FLAC)\02 Memphis Grease.wav
Pre-gap length 0:00:03.73
Peak level 96.6 % Extraction speed 1.4 X Track quality 100.0 % Test CRC 523D36DD Copy CRC 523D36DD Accurately ripped (confidence 2) [514C3744] (AR v2) Copy OK
Track 3
Filename C:\EAC Rips\[2017] Reggie Young - Forever Young (FLAC)\03 Soul Love.wav
Pre-gap length 0:00:02.92
Peak level 96.6 % Extraction speed 1.3 X Track quality 99.9 % Test CRC 0086DF71 Copy CRC 0086DF71 Accurately ripped (confidence 2) [EE152BFD] (AR v2) Copy OK
Track 4
Filename C:\EAC Rips\[2017] Reggie Young - Forever Young (FLAC)\04 Seagrove Place.wav
Pre-gap length 0:00:03.69
Peak level 96.6 % Extraction speed 1.6 X Track quality 99.9 % Test CRC B32C6B97 Copy CRC B32C6B97 Accurately ripped (confidence 2) [F4D7912E] (AR v2) Copy OK
Track 5
Filename C:\EAC Rips\[2017] Reggie Young - Forever Young (FLAC)\05 It's About Time.wav
Pre-gap length 0:00:01.98
Peak level 96.6 % Extraction speed 1.8 X Track quality 100.0 % Test CRC 5169F3FD Copy CRC 5169F3FD Accurately ripped (confidence 2) [D42D7BE9] (AR v2) Copy OK
Track 6
Filename C:\EAC Rips\[2017] Reggie Young - Forever Young (FLAC)\06 Exit 209.wav
Pre-gap length 0:00:01.93
Peak level 100.0 % Extraction speed 1.9 X Track quality 100.0 % Test CRC 2FA8575F Copy CRC 2FA8575F Accurately ripped (confidence 2) [01D0781F] (AR v2) Copy OK
Track 7
Filename C:\EAC Rips\[2017] Reggie Young - Forever Young (FLAC)\07 Jennifer.wav
Pre-gap length 0:00:01.93
Peak level 96.6 % Extraction speed 2.0 X Track quality 100.0 % Test CRC 89DCF3F1 Copy CRC 89DCF3F1 Accurately ripped (confidence 2) [D0F96C17] (AR v2) Copy OK
All tracks accurately ripped
No errors occurred
End of status report
---- CUETools DB Plugin V2.1.6
[CTDB TOCID: zCrLSmSVyJnZC0yI1VyeBje.7OE-] foundSubmit result: zCrLSmSVyJnZC0yI1VyeBje.7OE- has been confirmedTrack | CTDB Status 1 | (3/3) Accurately ripped 2 | (3/3) Accurately ripped 3 | (3/3) Accurately ripped 4 | (3/3) Accurately ripped 5 | (3/3) Accurately ripped 6 | (3/3) Accurately ripped 7 | (3/3) Accurately ripped
==== Log checksum 0A82C72C431EB3D9EF800F13999BE5B0DCD1D30E12C3395FF576FDA5BB4C708E ====

Содержание индексной карты (.CUE)

REM GENRE RockREM DATE 2017REM DISCID 64094907REM COMMENT "ExactAudioCopy v1.3"PERFORMER "Reggie Young"TITLE "Forever Young"REM COMPOSER ""FILE "01 Coming Home To Leipers Fork.wav" WAVE  TRACK 01 AUDIO    TITLE "Coming Home To Leipers Fork"    PERFORMER "Reggie Young"    REM COMPOSER ""    ISRC GB03A1700029    INDEX 01 00:00:00  TRACK 02 AUDIO    TITLE "Memphis Grease"    PERFORMER "Reggie Young"    REM COMPOSER ""    ISRC GB03A1700030    INDEX 00 04:34:05FILE "02 Memphis Grease.wav" WAVE    INDEX 01 00:00:00  TRACK 03 AUDIO    TITLE "Soul Love"    PERFORMER "Reggie Young"    REM COMPOSER ""    ISRC GB03A1700031    INDEX 00 06:46:74FILE "03 Soul Love.wav" WAVE    INDEX 01 00:00:00  TRACK 04 AUDIO    TITLE "Seagrove Place"    PERFORMER "Reggie Young"    REM COMPOSER ""    ISRC GB03A1700032    INDEX 00 04:21:18FILE "04 Seagrove Place.wav" WAVE    INDEX 01 00:00:00  TRACK 05 AUDIO    TITLE "It's About Time"    PERFORMER "Reggie Young"    REM COMPOSER ""    ISRC GB03A1700033    INDEX 00 06:55:23FILE "05 It's About Time.wav" WAVE    INDEX 01 00:00:00  TRACK 06 AUDIO    TITLE "Exit 209"    PERFORMER "Reggie Young"    REM COMPOSER ""    ISRC GB03A1700034    INDEX 00 06:20:19FILE "06 Exit 209.wav" WAVE    INDEX 01 00:00:00  TRACK 07 AUDIO    TITLE "Jennifer"    PERFORMER "Reggie Young"    REM COMPOSER ""    ISRC GB03A1700035    INDEX 00 04:57:01FILE "07 Jennifer.wav" WAVE    INDEX 01 00:00:00
Вы не можете начинать темы
Вы не можете отвечать на сообщения
Вы не можете редактировать свои сообщения
Вы не можете удалять свои сообщения
Вы не можете голосовать в опросах
Вы не можете прикреплять файлы к сообщениям
Вы можете скачивать файлы
!ВНИМАНИЕ!

Сайт не предоставляет электронные версии произведений, а занимается лишь коллекционированием и каталогизацией ссылок, присылаемых и публикуемых на форуме нашими читателями. Если вы являетесь правообладателем какого-либо представленного материала и не желаете, чтобы ссылка на него находилась в нашем каталоге, свяжитесь с нами, и мы незамедлительно удалим ее. Файлы для обмена на трекере предоставлены пользователями сайта, и администрация не несет ответственности за их содержание. Просьба не заливать файлы, защищенные авторскими правами, а также файлы нелегального содержания!

Искали программы, игры, дополнения, музыка mp3, аниме, аудио книги, журналы? Добро пожаловать на свободный торрент трекер Torrents, у нас можно скачать бесплатно, без смс и регистрации и прочих ограничений лучшие, отборные сборки программ, игр. Скачать торрентом не составит труда даже не опытному пользователю. Раздачи ежедневно обновляются, только лучшие и качественные раздачи, подробные описания и скриншоты. Огромная коллекция программ для работы со звуком, графикой, дизайном, а так же множество плагинов и инструментов к ним с подробной инструкцией и рекомендациями. Прошивки для навигаторов, карты. Разнообразные игры, для Windows, Linux. В коллекцие есть и старые игры любых жанров, Rpg, Action, Shooter, strategy Множество дополнений, модификаций, сценариев для популярных игр в жанре экш, рпг, гонки, стратегии, логические игры. Множество аддонов и сценариев для Microsoft Flight Simulator Большая коллекция книг, учебников. Если нет возможности купить печатное издание - смело скачивайте цифровую версию книги или, быть может, журнала. Не любите читать - можно загрузить бесплатно аудикнигу. Для веб дизайнеров и программистов так же найдется множество специализированного софта, таких как: редакторы с подсветкой, среды программирования, компоненты, системы управления базами данных, разнообразные скрипты и шаблоны. Не так давно у нас появился материал для автолюбителей и владельцев мото - оригинальные и неоригинальные каталоги запчастей, книги и журналы по ремонту и обслуживанию, видеоуроки, статьи по чип тюнингу, прошивкам. Процедура получения контента элементарная, достаточно просто скачать торрент файл и добавить его в загрузку в вашем торрент клиенте. Если у вас нет специального торрент клиента, вы можете его скачать у нас.