(Progressive Metal) [CD] Greg Rapaport - Sojourn - 2012, FLAC (tracks+.cue), lossless 

Цитировать
Greg Rapaport / Sojourn
Жанр: Progressive Metal
Носитель: CD
Год издания: 2012
Издатель (лейбл): Greg Rapaport/Splinterhead Prod.
Страна исполнителя (группы): USA
Аудиокодек: FLAC (*.flac)
Тип рипа: tracks+.cue
Битрейт аудио: lossless
Продолжительность: 60:00
Источник (релизер): Интернет
Наличие сканов в содержимом раздачи: да
Треклист:
01. Threshold
02. Exhale Into the Pit
03. Out Come the Wolves
04. Azrael's Fatal Intent
05. Asleep in the Barrows
06. Nauticull
07. The Gates of Golgotha
08. A King's End
09. The Reanimator

Лог создания рипа

Exact Audio Copy V1.3 from 2. September 2016
EAC extraction logfile from 27. March 2017, 0:37
Greg Rapaport / Sojourn
Used drive : TSSTcorpCDDVDW SH-222AB Adapter: 1 ID: 0
Read mode : SecureUtilize accurate stream : YesDefeat audio cache : YesMake use of C2 pointers : No
Read offset correction : 6Overread into Lead-In and Lead-Out : NoFill up missing offset samples with silence : YesDelete leading and trailing silent blocks : NoNull samples used in CRC calculations : YesUsed interface : Native Win32 interface for Win NT & 2000Gap handling : Appended to previous track
Used output format : User Defined EncoderSelected bitrate : 128 kBit/sQuality : HighAdd ID3 tag : NoCommand line compressor : C:\Program Files (x86)\Exact Audio Copy\Flac\flac.exeAdditional command line options : -8 -e -p -V -T "ARTIST=%artist%" -T "TITLE=%title%" -T "ALBUM=%albumtitle%" -T "DATE=%year%" -T "TRACKNUMBER=%tracknr%" -T "DISCNUMBER=%cdnumber%" -T "TOTALDISCS=%totalcds%" -T "TOTALTRACKS=%numtracks%" %source% -o %dest%
TOC of the extracted CD
Track | Start | Length | Start sector | End sector --------------------------------------------------------- 1 | 0:00.00 | 6:19.35 | 0 | 28459 2 | 6:19.35 | 7:37.39 | 28460 | 62773 3 | 13:56.74 | 9:06.73 | 62774 | 103796 4 | 23:03.72 | 6:37.50 | 103797 | 133621 5 | 29:41.47 | 6:17.16 | 133622 | 161912 6 | 35:58.63 | 6:27.04 | 161913 | 190941 7 | 42:25.67 | 5:17.28 | 190942 | 214744 8 | 47:43.20 | 5:59.40 | 214745 | 241709 9 | 53:42.60 | 6:21.23 | 241710 | 270307
Track 1
Filename D:\rips\Greg Rapaport - Sojourn (2012)[5060179701171][FLAC]\01 - Threshold.wav
Pre-gap length 0:00:02.00
Peak level 96.4 % Extraction speed 4.2 X Track quality 99.9 % Test CRC 9F232CE8 Copy CRC 9F232CE8 Track not present in AccurateRip database Copy OK
Track 2
Filename D:\rips\Greg Rapaport - Sojourn (2012)[5060179701171][FLAC]\02 - Exhale Into the Pit.wav
Peak level 96.4 % Extraction speed 5.1 X Track quality 99.9 % Test CRC A3981B9E Copy CRC A3981B9E Track not present in AccurateRip database Copy OK
Track 3
Filename D:\rips\Greg Rapaport - Sojourn (2012)[5060179701171][FLAC]\03 - Out Come the Wolves.wav
Peak level 96.4 % Extraction speed 6.7 X Track quality 100.0 % Test CRC A692D331 Copy CRC A692D331 Track not present in AccurateRip database Copy OK
Track 4
Filename D:\rips\Greg Rapaport - Sojourn (2012)[5060179701171][FLAC]\04 - Azrael's Fatal Intent.wav
Peak level 96.4 % Extraction speed 7.2 X Track quality 100.0 % Test CRC E10BF8C0 Copy CRC E10BF8C0 Track not present in AccurateRip database Copy OK
Track 5
Filename D:\rips\Greg Rapaport - Sojourn (2012)[5060179701171][FLAC]\05 - Asleep in the Barrows.wav
Peak level 96.4 % Extraction speed 7.7 X Track quality 100.0 % Test CRC C92598F8 Copy CRC C92598F8 Track not present in AccurateRip database Copy OK
Track 6
Filename D:\rips\Greg Rapaport - Sojourn (2012)[5060179701171][FLAC]\06 - Nauticull.wav
Peak level 96.4 % Extraction speed 8.1 X Track quality 100.0 % Test CRC C7DE82FB Copy CRC C7DE82FB Track not present in AccurateRip database Copy OK
Track 7
Filename D:\rips\Greg Rapaport - Sojourn (2012)[5060179701171][FLAC]\07 - The Gates of Golgotha.wav
Peak level 96.4 % Extraction speed 7.0 X Track quality 99.9 % Test CRC 66A27D63 Copy CRC 66A27D63 Track not present in AccurateRip database Copy OK
Track 8
Filename D:\rips\Greg Rapaport - Sojourn (2012)[5060179701171][FLAC]\08 - A King's End.wav
Peak level 96.4 % Extraction speed 7.5 X Track quality 99.9 % Test CRC 5C1CAEEA Copy CRC 5C1CAEEA Track not present in AccurateRip database Copy OK
Track 9
Filename D:\rips\Greg Rapaport - Sojourn (2012)[5060179701171][FLAC]\09 - The Reanimator.wav
Peak level 96.4 % Extraction speed 9.2 X Track quality 100.0 % Test CRC 6C10FF5E Copy CRC 6C10FF5E Track not present in AccurateRip database Copy OK
None of the tracks are present in the AccurateRip database
No errors occurred
End of status report
---- CUETools DB Plugin V2.1.6
[CTDB TOCID: zExMNMFk0G0HRVyW2nSAFvliDSg-] disk not present in databaseSubmit result: zExMNMFk0G0HRVyW2nSAFvliDSg- has been uploaded
==== Log checksum B6E49260B73EE36D99258773CEEF6326E03DD16B645371522C69788B05286780 ====

Содержание индексной карты (.CUE)

REM GENRE RockREM DATE 2012REM DISCID 800E1409REM COMMENT "ExactAudioCopy v1.3"FILE "01 - Threshold.wav" WAVE  TRACK 01 AUDIO    INDEX 01 00:00:00FILE "02 - Exhale Into the Pit.wav" WAVE  TRACK 02 AUDIO    INDEX 01 00:00:00FILE "03 - Out Come the Wolves.wav" WAVE  TRACK 03 AUDIO    INDEX 01 00:00:00FILE "04 - Azrael's Fatal Intent.wav" WAVE  TRACK 04 AUDIO    INDEX 01 00:00:00FILE "05 - Asleep in the Barrows.wav" WAVE  TRACK 05 AUDIO    INDEX 01 00:00:00FILE "06 - Nauticull.wav" WAVE  TRACK 06 AUDIO    INDEX 01 00:00:00FILE "07 - The Gates of Golgotha.wav" WAVE  TRACK 07 AUDIO    INDEX 01 00:00:00FILE "08 - A King's End.wav" WAVE  TRACK 08 AUDIO    INDEX 01 00:00:00FILE "09 - The Reanimator.wav" WAVE  TRACK 09 AUDIO    INDEX 01 00:00:00
Вы не можете начинать темы
Вы не можете отвечать на сообщения
Вы не можете редактировать свои сообщения
Вы не можете удалять свои сообщения
Вы не можете голосовать в опросах
Вы не можете прикреплять файлы к сообщениям
Вы можете скачивать файлы
!ВНИМАНИЕ!

Сайт не предоставляет электронные версии произведений, а занимается лишь коллекционированием и каталогизацией ссылок, присылаемых и публикуемых на форуме нашими читателями. Если вы являетесь правообладателем какого-либо представленного материала и не желаете, чтобы ссылка на него находилась в нашем каталоге, свяжитесь с нами, и мы незамедлительно удалим ее. Файлы для обмена на трекере предоставлены пользователями сайта, и администрация не несет ответственности за их содержание. Просьба не заливать файлы, защищенные авторскими правами, а также файлы нелегального содержания!

Искали программы, игры, дополнения, музыка mp3, аниме, аудио книги, журналы? Добро пожаловать на свободный торрент трекер Torrents, у нас можно скачать бесплатно, без смс и регистрации и прочих ограничений лучшие, отборные сборки программ, игр. Скачать торрентом не составит труда даже не опытному пользователю. Раздачи ежедневно обновляются, только лучшие и качественные раздачи, подробные описания и скриншоты. Огромная коллекция программ для работы со звуком, графикой, дизайном, а так же множество плагинов и инструментов к ним с подробной инструкцией и рекомендациями. Прошивки для навигаторов, карты. Разнообразные игры, для Windows, Linux. В коллекцие есть и старые игры любых жанров, Rpg, Action, Shooter, strategy Множество дополнений, модификаций, сценариев для популярных игр в жанре экш, рпг, гонки, стратегии, логические игры. Множество аддонов и сценариев для Microsoft Flight Simulator Большая коллекция книг, учебников. Если нет возможности купить печатное издание - смело скачивайте цифровую версию книги или, быть может, журнала. Не любите читать - можно загрузить бесплатно аудикнигу. Для веб дизайнеров и программистов так же найдется множество специализированного софта, таких как: редакторы с подсветкой, среды программирования, компоненты, системы управления базами данных, разнообразные скрипты и шаблоны. Не так давно у нас появился материал для автолюбителей и владельцев мото - оригинальные и неоригинальные каталоги запчастей, книги и журналы по ремонту и обслуживанию, видеоуроки, статьи по чип тюнингу, прошивкам. Процедура получения контента элементарная, достаточно просто скачать торрент файл и добавить его в загрузку в вашем торрент клиенте. Если у вас нет специального торрент клиента, вы можете его скачать у нас.