(Progressive Rock-Guitar) Shane Theriot- The Grease Factor/feat.Adam Nitti,Victor Wooten/ - 2003, APE (image+.cue), lossless 

Цитировать
Shane Theriot- The Grease Factor/feat.Adam Nitti,Victor Wooten/
Жанр: Progressive Rock-Guitar
Год выпуска диска: 2003
Производитель диска: Russia
Аудио кодек: APE
Тип рипа: image+.cue
Битрейт аудио: lossless
Продолжительность: 00:51:27

Трэклист:
1.Little Hat
2.Swish
3.Zodiac
4.Shrimp Boots
5.Dublin
6.Mr. Longhair
7.The Apartment
8.Slow
9.Woody
10.Zydefaux
11.Dear Ellen

Доп. информация: Musiciant:
Shane Theriot-electric guitar,percussion,handclaps,additional keyboards.
Tony Hall-bass,Johnny Vidacovich-drums,Johnny Neel-piano,
Michael Goods-piano,Adam Nitti-bass,Russell Batiste-drums,
Manny Yanes_Jim Roberts-handclaps,percussion,
Kirk Joseph-sousaphone,Doug Belote-drums,
David Johnson-fletless-bass,Mark Mullins-trombone,
Victor Wooten-fretless bass,Jeff Sipe-drums,David Northrup-drums,
Kiyoshi Tanai-voice,Jeff Coffin-tenor sax,Steve Conn-accordion,

Супер! Супер!Супер! Проект...
Рип из личного архива.

Отчёт EAC

Exact Audio Copy V0.99 prebeta 4 from 23. January 2008
Отчёт EAC об извлечении, выполненном 4. мая 2010, 19:23
Shane Theriot / The Grease Factor
Дисковод: _NEC DVD_RW ND-2510A Adapter: 1 ID: 0
Режим чтения : Достоверность
Использование точного потока : Да
Отключение кэша аудио : Да
Использование указателей C2 : Нет
Коррекция смещения при чтении : 48
Способность читать области Lead-in и Lead-out : Нет
Заполнение пропущенных сэмплов тишиной : Да
Удаление блоков с тишиной в начале и конце : Нет
При вычислениях CRC использовались нулевые сэмплы : Да
Интерфейс : Установленный внешний ASPI-интерфейс
Выходной формат : Внутренние WAV-операции
Формат сэмплов : 44.100 Гц; 16 бит; стерео
TOC извлечённого CD
Трек | Старт | Длительность | Начальный сектор | Конечный сектор
---------------------------------------------------------------------
1 | 0:00.00 | 4:50.22 | 0 | 21771
2 | 4:50.22 | 5:12.43 | 21772 | 45214
3 | 10:02.65 | 4:08.56 | 45215 | 63870
4 | 14:11.46 | 3:40.50 | 63871 | 80420
5 | 17:52.21 | 5:43.33 | 80421 | 106178
6 | 23:35.54 | 5:57.44 | 106179 | 132997
7 | 29:33.23 | 5:44.73 | 132998 | 158870
8 | 35:18.21 | 5:42.52 | 158871 | 184572
9 | 41:00.73 | 5:17.66 | 184573 | 208413
10 | 46:18.64 | 3:52.58 | 208414 | 225871
11 | 50:11.47 | 1:14.73 | 225872 | 231494
Характеристики диапазона извлечения и сообщения об ошибках
Выбранный диапазон
Имя файла E:\ПРОЕКТ\Shane Theriot-The Grease Factor 2003\Shane Theriot - The Grease Factor.wav
Пиковый уровень 100.0 %
Качество диапазона 100.0 %
CRC теста BFD61550
CRC копии BFD61550
Копирование... OK
Ошибок не произошло
AccurateRip: сводка
Трек 1 точность не определена (достоверность 2) [F1022A4B], AccurateRip вернул [829FADE8]
Трек 2 точность не определена (достоверность 2) [F5A37162], AccurateRip вернул [238A5395]
Трек 3 точность не определена (достоверность 2) [6BD6A1AF], AccurateRip вернул [148FCA34]
Трек 4 точность не определена (достоверность 2) [091B2F2A], AccurateRip вернул [FADA6CE4]
Трек 5 точность не определена (достоверность 2) [5AF7B19C], AccurateRip вернул [7836897A]
Трек 6 точность не определена (достоверность 2) [6C470DE6], AccurateRip вернул [D52E8CEF]
Трек 7 точность не определена (достоверность 2) [3AA0CEB0], AccurateRip вернул [CDCEB782]
Трек 8 точность не определена (достоверность 2) [70FC2FF4], AccurateRip вернул [0B3554A2]
Трек 9 точность не определена (достоверность 2) [1FBF5DF4], AccurateRip вернул [2D3FB83B]
Трек 10 точность не определена (достоверность 2) [CBBD0D40], AccurateRip вернул [3AFBD394]
Трек 11 точность не определена (достоверность 2) [FCDA2F20], AccurateRip вернул [B7844C6C]
Ни один трек не прошёл проверки на точность
В вашей базе может быть иной вариант штамповки диска
Конец отчёта
Вы не можете начинать темы
Вы не можете отвечать на сообщения
Вы не можете редактировать свои сообщения
Вы не можете удалять свои сообщения
Вы не можете голосовать в опросах
Вы не можете прикреплять файлы к сообщениям
Вы можете скачивать файлы
!ВНИМАНИЕ!

Сайт не предоставляет электронные версии произведений, а занимается лишь коллекционированием и каталогизацией ссылок, присылаемых и публикуемых на форуме нашими читателями. Если вы являетесь правообладателем какого-либо представленного материала и не желаете, чтобы ссылка на него находилась в нашем каталоге, свяжитесь с нами, и мы незамедлительно удалим ее. Файлы для обмена на трекере предоставлены пользователями сайта, и администрация не несет ответственности за их содержание. Просьба не заливать файлы, защищенные авторскими правами, а также файлы нелегального содержания!

Искали программы, игры, дополнения, музыка mp3, аниме, аудио книги, журналы? Добро пожаловать на свободный торрент трекер Torrents, у нас можно скачать бесплатно, без смс и регистрации и прочих ограничений лучшие, отборные сборки программ, игр. Скачать торрентом не составит труда даже не опытному пользователю. Раздачи ежедневно обновляются, только лучшие и качественные раздачи, подробные описания и скриншоты. Огромная коллекция программ для работы со звуком, графикой, дизайном, а так же множество плагинов и инструментов к ним с подробной инструкцией и рекомендациями. Прошивки для навигаторов, карты. Разнообразные игры, для Windows, Linux. В коллекцие есть и старые игры любых жанров, Rpg, Action, Shooter, strategy Множество дополнений, модификаций, сценариев для популярных игр в жанре экш, рпг, гонки, стратегии, логические игры. Множество аддонов и сценариев для Microsoft Flight Simulator Большая коллекция книг, учебников. Если нет возможности купить печатное издание - смело скачивайте цифровую версию книги или, быть может, журнала. Не любите читать - можно загрузить бесплатно аудикнигу. Для веб дизайнеров и программистов так же найдется множество специализированного софта, таких как: редакторы с подсветкой, среды программирования, компоненты, системы управления базами данных, разнообразные скрипты и шаблоны. Не так давно у нас появился материал для автолюбителей и владельцев мото - оригинальные и неоригинальные каталоги запчастей, книги и журналы по ремонту и обслуживанию, видеоуроки, статьи по чип тюнингу, прошивкам. Процедура получения контента элементарная, достаточно просто скачать торрент файл и добавить его в загрузку в вашем торрент клиенте. Если у вас нет специального торрент клиента, вы можете его скачать у нас.