(Instrumental Rock, Pop, Soft Rock, Pop Rock, Ballad) [CD] The Shadows - Boxing The Shadows 1980-1990 (11CD Box Set) - 2017 (Edsel Records EU), FLAC (image+.cue), lossless 

Цитировать
The Shadows - Boxing The Shadows 1980-1990
Жанр: Instrumental Rock, Pop, Soft Rock, Pop Rock, Ballad
Носитель: CD
Страна-производитель диска: EU
Год издания диска: 2017
Издатель (лейбл): Edsel Records
Номер по каталогу: SHADSBOX01X
Страна: UK
Аудио кодек: FLAC (*.flac)
Тип рипа: image+.cue
Битрейт аудио: lossless
Продолжительность: 10:18:02
Источник (релизер): allekkss48
Наличие сканов в содержимом раздачи: да
Треклист:

1980 - Change Of Address (00:47:41)

01. Mozart Forte
02. Midnight Creepin’
03. Change Of Address
04. Just The Way You Are
05. Indigo
06. Arty’s Party
07. Outdigo
08. Hello Mr. W.A.M.
09. Temptation
10. Albatross
11. If You Leave Me Now
12. Equinoxe (Part V)

Лог создания рипа

Exact Audio Copy V1.3 from 2. September 2016
EAC extraction logfile from 14. November 2017, 15:44
The Shadows / Change Of Address
Used drive : PLEXTOR BD-R PX-B950SA Adapter: 1 ID: 1
Read mode : SecureUtilize accurate stream : YesDefeat audio cache : YesMake use of C2 pointers : No
Read offset correction : 6Overread into Lead-In and Lead-Out : NoFill up missing offset samples with silence : YesDelete leading and trailing silent blocks : NoNull samples used in CRC calculations : YesUsed interface : Native Win32 interface for Win NT & 2000
Used output format : Internal WAV RoutinesSample format : 44.100 Hz; 16 Bit; Stereo
TOC of the extracted CD
Track | Start | Length | Start sector | End sector --------------------------------------------------------- 1 | 0:00.00 | 2:37.07 | 0 | 11781 2 | 2:37.07 | 4:05.23 | 11782 | 30179 3 | 6:42.30 | 4:16.73 | 30180 | 49452 4 | 10:59.28 | 3:23.70 | 49453 | 64747 5 | 14:23.23 | 4:19.16 | 64748 | 84188 6 | 18:42.39 | 4:50.53 | 84189 | 105991 7 | 23:33.17 | 3:20.03 | 105992 | 120994 8 | 26:53.20 | 3:51.48 | 120995 | 138367 9 | 30:44.68 | 4:07.12 | 138368 | 156904 10 | 34:52.05 | 3:18.41 | 156905 | 171795 11 | 38:10.46 | 4:09.34 | 171796 | 190504 12 | 42:20.05 | 5:20.65 | 190505 | 214569
Range status and errors
Selected range
Filename C:\Users\Alex\Desktop\Lossless Galaxy ALLexxess\The Shadows\2017 Boxing Shadows 1980-1990 (11CD Box Set Edsel Records)\1980 Change Of Address\The Shadows - Change Of Address.wav
Peak level 94.3 % Extraction speed 7.0 X Range quality 100.0 % Test CRC ADAC9C5F Copy CRC ADAC9C5F Copy OK
No errors occurred
AccurateRip summary
Track 1 not present in databaseTrack 2 not present in databaseTrack 3 not present in databaseTrack 4 not present in databaseTrack 5 not present in databaseTrack 6 not present in databaseTrack 7 not present in databaseTrack 8 not present in databaseTrack 9 not present in databaseTrack 10 not present in databaseTrack 11 not present in databaseTrack 12 not present in database
None of the tracks are present in the AccurateRip database
End of status report
---- CUETools DB Plugin V2.1.6
[CTDB TOCID: 3P6tBFDeca4DYtPIO9_7kfoFhH4-] foundSubmit result: 3P6tBFDeca4DYtPIO9_7kfoFhH4- has been confirmedTrack | CTDB Status 1 | (1/1) Accurately ripped 2 | (1/1) Accurately ripped 3 | (1/1) Accurately ripped 4 | (1/1) Accurately ripped 5 | (1/1) Accurately ripped 6 | (1/1) Accurately ripped 7 | (1/1) Accurately ripped 8 | (1/1) Accurately ripped 9 | (1/1) Accurately ripped 10 | (1/1) Accurately ripped 11 | (1/1) Accurately ripped 12 | (1/1) Accurately ripped
==== Log checksum 6485D9487C17525E9060C439051FA02E292D7049701CEC4BDC65E3E3035E11FC ====

Содержание индексной карты (.CUE)

REM GENRE "Rock / Pop / Soft Rock / Pop Rock / Ballad"REM DATE 1980REM DISCID 970B2C0CREM COMMENT "ExactAudioCopy v1.3"PERFORMER "The Shadows"TITLE "Change Of Address"REM COMPOSER "The Shadows"FILE "The Shadows - Change Of Address.flac" WAVE  TRACK 01 AUDIO    TITLE "Mozart Forte"    PERFORMER "The Shadows"    REM COMPOSER "The Shadows"    FLAGS DCP    INDEX 01 00:00:00  TRACK 02 AUDIO    TITLE "Midnight Creepin'"    PERFORMER "The Shadows"    REM COMPOSER "The Shadows"    FLAGS DCP    INDEX 00 02:35:30    INDEX 01 02:37:07  TRACK 03 AUDIO    TITLE "Change Of Address"    PERFORMER "The Shadows"    REM COMPOSER "The Shadows"    FLAGS DCP    INDEX 00 06:40:70    INDEX 01 06:42:30  TRACK 04 AUDIO    TITLE "Just The Way You Are"    PERFORMER "The Shadows"    REM COMPOSER "The Shadows"    FLAGS DCP    INDEX 00 10:57:53    INDEX 01 10:59:28  TRACK 05 AUDIO    TITLE "Indigo"    PERFORMER "The Shadows"    REM COMPOSER "The Shadows"    FLAGS DCP    INDEX 00 14:21:47    INDEX 01 14:23:23  TRACK 06 AUDIO    TITLE "Arty's Party"    PERFORMER "The Shadows"    REM COMPOSER "The Shadows"    FLAGS DCP    INDEX 00 18:41:09    INDEX 01 18:42:39  TRACK 07 AUDIO    TITLE "Outdigo"    PERFORMER "The Shadows"    REM COMPOSER "The Shadows"    FLAGS DCP    INDEX 00 23:32:34    INDEX 01 23:33:17  TRACK 08 AUDIO    TITLE "Hello Mr. W.A.M."    PERFORMER "The Shadows"    REM COMPOSER "The Shadows"    FLAGS DCP    INDEX 00 26:51:73    INDEX 01 26:53:20  TRACK 09 AUDIO    TITLE "Temptation"    PERFORMER "The Shadows"    REM COMPOSER "The Shadows"    FLAGS DCP    INDEX 00 30:43:13    INDEX 01 30:44:68  TRACK 10 AUDIO    TITLE "Albatross"    PERFORMER "The Shadows"    REM COMPOSER "The Shadows"    FLAGS DCP    INDEX 00 34:50:54    INDEX 01 34:52:05  TRACK 11 AUDIO    TITLE "If You Leave Me Now"    PERFORMER "The Shadows"    REM COMPOSER "The Shadows"    FLAGS DCP    INDEX 00 38:09:36    INDEX 01 38:10:46  TRACK 12 AUDIO    TITLE "Equinoxe (Part V)"    PERFORMER "The Shadows"    REM COMPOSER "The Shadows"    FLAGS DCP    INDEX 00 42:18:62    INDEX 01 42:20:05

Лог проверки качества

-----------------------
DON'T MODIFY THIS FILE
-----------------------
PERFORMER: auCDtect Task Manager, ver. 1.6.0 RC1 build 1.6.0.1Copyright (c) 2008-2010 y-soft. All rights reservedhttp://y-soft.org
ANALYZER: auCDtect: CD records authenticity detector, version 0.8.2Copyright (c) 2004 Oleg Berngardt. All rights reserved.Copyright (c) 2004 Alexander Djourik. All rights reserved.
FILE: The Shadows - Change Of Address.wav Size: 504668684 Hash: 5C475E687F390C3325EBFF9E8F5CE502 Accuracy: -m8 Conclusion: CDDA 100% Signature: B9F26343331601CB5D735EBA946A5CEE5C399C9CFILE: The Shadows - Change Of Address.flac Size: 307886913 Hash: 5C475E687F390C3325EBFF9E8F5CE502 Accuracy: -m8 Conclusion: CDDA 100% Signature: 3805D8E26593528E09BE47B81F23BF5A0D194A00

Back, Disc, Matrix, Spectrogram

1982 - Hits Right Up Your Street (00:58:31)

01. Telstar
02. Chi Mai (Theme From ’The Life And Times Of David Lloyd George’)
03. We Don’t Talk Anymore
04. Imagine / Woman
05. Hats Off To Wally
06. One Day I’ll Fly Away
07. Summer Love ‘59
08. Misty
09. This Ole House
10. The Winner Takes It All
11. Sailing
12. Thing-Me-Jig
13. More Than I Can Say
14. Cowboy Cafe
15. The Third Man
16. Nut Rocker
Bonus Track:
17. The Fourth Man

Лог создания рипа

Exact Audio Copy V1.3 from 2. September 2016
EAC extraction logfile from 14. November 2017, 15:20
The Shadows / Hits Right Up Your Street
Used drive : PLEXTOR BD-R PX-B950SA Adapter: 1 ID: 1
Read mode : SecureUtilize accurate stream : YesDefeat audio cache : YesMake use of C2 pointers : No
Read offset correction : 6Overread into Lead-In and Lead-Out : NoFill up missing offset samples with silence : YesDelete leading and trailing silent blocks : NoNull samples used in CRC calculations : YesUsed interface : Native Win32 interface for Win NT & 2000
Used output format : Internal WAV RoutinesSample format : 44.100 Hz; 16 Bit; Stereo
TOC of the extracted CD
Track | Start | Length | Start sector | End sector --------------------------------------------------------- 1 | 0:00.00 | 3:04.48 | 0 | 13847 2 | 3:04.48 | 3:38.09 | 13848 | 30206 3 | 6:42.57 | 4:23.63 | 30207 | 49994 4 | 11:06.45 | 3:30.41 | 49995 | 65785 5 | 14:37.11 | 2:59.58 | 65786 | 79268 6 | 17:36.69 | 4:14.22 | 79269 | 98340 7 | 21:51.16 | 3:11.11 | 98341 | 112676 8 | 25:02.27 | 2:58.07 | 112677 | 126033 9 | 28:00.34 | 3:26.65 | 126034 | 141548 10 | 31:27.24 | 3:52.59 | 141549 | 159007 11 | 35:20.08 | 4:49.36 | 159008 | 180718 12 | 40:09.44 | 2:56.13 | 180719 | 193931 13 | 43:05.57 | 3:29.34 | 193932 | 209640 14 | 46:35.16 | 2:48.42 | 209641 | 222282 15 | 49:23.58 | 3:12.34 | 222283 | 236716 16 | 52:36.17 | 2:15.37 | 236717 | 246878 17 | 54:51.54 | 3:39.46 | 246879 | 263349
Range status and errors
Selected range
Filename C:\Users\Alex\Desktop\Lossless Galaxy ALLexxess\The Shadows\2017 Boxing Shadows 1980-1990 (11CD Box Set Edsel Records)\1982 Hits Right Up Your Street\The Shadows - Hits Right Up Your Street.wav
Peak level 94.3 % Extraction speed 7.4 X Range quality 100.0 % Test CRC 13A2C453 Copy CRC 13A2C453 Copy OK
No errors occurred
AccurateRip summary
Track 1 not present in databaseTrack 2 not present in databaseTrack 3 not present in databaseTrack 4 not present in databaseTrack 5 not present in databaseTrack 6 not present in databaseTrack 7 not present in databaseTrack 8 not present in databaseTrack 9 not present in databaseTrack 10 not present in databaseTrack 11 not present in databaseTrack 12 not present in databaseTrack 13 not present in databaseTrack 14 not present in databaseTrack 15 not present in databaseTrack 16 not present in databaseTrack 17 not present in database
None of the tracks are present in the AccurateRip database
End of status report
---- CUETools DB Plugin V2.1.6
[CTDB TOCID: hNipshrehaHSw.K7ua5b3aF.01o-] foundSubmit result: hNipshrehaHSw.K7ua5b3aF.01o- has been confirmedTrack | CTDB Status 1 | (1/1) Accurately ripped 2 | (1/1) Accurately ripped 3 | (1/1) Accurately ripped 4 | (1/1) Accurately ripped 5 | (1/1) Accurately ripped 6 | (1/1) Accurately ripped 7 | (1/1) Accurately ripped 8 | (1/1) Accurately ripped 9 | (1/1) Accurately ripped 10 | (1/1) Accurately ripped 11 | (1/1) Accurately ripped 12 | (1/1) Accurately ripped 13 | (1/1) Accurately ripped 14 | (1/1) Accurately ripped 15 | (1/1) Accurately ripped 16 | (1/1) Accurately ripped 17 | (1/1) Accurately ripped
==== Log checksum B10C67454C3B1D094BDDACC8956FFE093D2F3A9195CF69BAC024FFFDAA145868 ====

Содержание индексной карты (.CUE)

REM GENRE "Rock / Pop / Soft Rock / Pop Rock / Ballad"REM DATE 1982REM DISCID 070DB711REM COMMENT "ExactAudioCopy v1.3"PERFORMER "The Shadows"TITLE "Hits Right Up Your Street"REM COMPOSER "The Shadows"FILE "The Shadows - Hits Right Up Your Street.flac" WAVE  TRACK 01 AUDIO    TITLE "Telstar"    PERFORMER "The Shadows"    REM COMPOSER "The Shadows"    FLAGS DCP    INDEX 01 00:00:00  TRACK 02 AUDIO    TITLE "Chi Mai"    PERFORMER "The Shadows"    REM COMPOSER "The Shadows"    FLAGS DCP    INDEX 00 03:04:02    INDEX 01 03:04:48  TRACK 03 AUDIO    TITLE "We Don't Talk Anymore"    PERFORMER "The Shadows"    REM COMPOSER "The Shadows"    FLAGS DCP    INDEX 00 06:42:06    INDEX 01 06:42:57  TRACK 04 AUDIO    TITLE "Imagine / Woman"    PERFORMER "The Shadows"    REM COMPOSER "The Shadows"    FLAGS DCP    INDEX 00 11:05:41    INDEX 01 11:06:45  TRACK 05 AUDIO    TITLE "Hats Off To Wally"    PERFORMER "The Shadows"    REM COMPOSER "The Shadows"    FLAGS DCP    INDEX 00 14:35:43    INDEX 01 14:37:11  TRACK 06 AUDIO    TITLE "One Day I'll Fly Away"    PERFORMER "The Shadows"    REM COMPOSER "The Shadows"    FLAGS DCP    INDEX 00 17:35:37    INDEX 01 17:36:69  TRACK 07 AUDIO    TITLE "Summer Of Love '59"    PERFORMER "The Shadows"    REM COMPOSER "The Shadows"    FLAGS DCP    INDEX 00 21:49:57    INDEX 01 21:51:16  TRACK 08 AUDIO    TITLE "Misty"    PERFORMER "The Shadows"    REM COMPOSER "The Shadows"    FLAGS DCP    INDEX 00 25:00:64    INDEX 01 25:02:27  TRACK 09 AUDIO    TITLE "This Ole House"    PERFORMER "The Shadows"    REM COMPOSER "The Shadows"    FLAGS DCP    INDEX 00 27:59:38    INDEX 01 28:00:34  TRACK 10 AUDIO    TITLE "The Winner Takes It All"    PERFORMER "The Shadows"    REM COMPOSER "The Shadows"    FLAGS DCP    INDEX 00 31:25:74    INDEX 01 31:27:24  TRACK 11 AUDIO    TITLE "Sailing"    PERFORMER "The Shadows"    REM COMPOSER "The Shadows"    FLAGS DCP    INDEX 00 35:19:32    INDEX 01 35:20:08  TRACK 12 AUDIO    TITLE "Thing-Me-Jig"    PERFORMER "The Shadows"    REM COMPOSER "The Shadows"    FLAGS DCP    INDEX 00 40:08:17    INDEX 01 40:09:44  TRACK 13 AUDIO    TITLE "More Than I Can Say"    PERFORMER "The Shadows"    REM COMPOSER "The Shadows"    FLAGS DCP    INDEX 00 43:04:17    INDEX 01 43:05:57  TRACK 14 AUDIO    TITLE "Cowboy Cafe"    PERFORMER "The Shadows"    REM COMPOSER "The Shadows"    FLAGS DCP    INDEX 00 46:34:05    INDEX 01 46:35:16  TRACK 15 AUDIO    TITLE "The Third Man"    PERFORMER "The Shadows"    REM COMPOSER "The Shadows"    FLAGS DCP    INDEX 00 49:22:41    INDEX 01 49:23:58  TRACK 16 AUDIO    TITLE "Nut Rocker"    PERFORMER "The Shadows"    REM COMPOSER "The Shadows"    FLAGS DCP    INDEX 00 52:34:26    INDEX 01 52:36:17  TRACK 17 AUDIO    TITLE "The Fourth Man / Bonus Track"    PERFORMER "The Shadows"    REM COMPOSER "The Shadows"    FLAGS DCP    INDEX 00 54:49:66    INDEX 01 54:51:54

Лог проверки качества

-----------------------
DON'T MODIFY THIS FILE
-----------------------
PERFORMER: auCDtect Task Manager, ver. 1.6.0 RC1 build 1.6.0.1Copyright (c) 2008-2010 y-soft. All rights reservedhttp://y-soft.org
ANALYZER: auCDtect: CD records authenticity detector, version 0.8.2Copyright (c) 2004 Oleg Berngardt. All rights reserved.Copyright (c) 2004 Alexander Djourik. All rights reserved.
FILE: The Shadows - Hits Right Up Your Street.wav Size: 619399244 Hash: A5EF0EB37264403AA54ABC218EE606CB Accuracy: -m8 Conclusion: CDDA 100% Signature: B99A27E6FB5F52CC0E839400CD9F448E9B78EDE0FILE: The Shadows - Hits Right Up Your Street.flac Size: 363526985 Hash: A5EF0EB37264403AA54ABC218EE606CB Accuracy: -m8 Conclusion: CDDA 100% Signature: 36401CD753B8BCAAE35A312BF4245E06CC7F7D1B

Back, Disc, Matrix, Spectrogram

1982 - Life In The Jungle (00:51:09)

01. Life In The Jungle
02. High Noon
03. The Theme From ‘Missing‘
04. Treat Me Nice
05. Cat ‘N’ Mouse
06. Chariots Of Fire
07. No Dancing!
08. Riders Of The Range
09. The Old Romantics
10. You Rescue Me
11. Lili Marlene
12. Raunchy
Bonus Tracks:
13. Spot The Ball
14. The Shady Lady

Лог создания рипа

Exact Audio Copy V1.3 from 2. September 2016
EAC extraction logfile from 14. November 2017, 11:40
The Shadows / Life In The Jungle
Used drive : PLEXTOR BD-R PX-B950SA Adapter: 1 ID: 1
Read mode : SecureUtilize accurate stream : YesDefeat audio cache : YesMake use of C2 pointers : No
Read offset correction : 6Overread into Lead-In and Lead-Out : NoFill up missing offset samples with silence : YesDelete leading and trailing silent blocks : NoNull samples used in CRC calculations : YesUsed interface : Native Win32 interface for Win NT & 2000
Used output format : Internal WAV RoutinesSample format : 44.100 Hz; 16 Bit; Stereo
TOC of the extracted CD
Track | Start | Length | Start sector | End sector --------------------------------------------------------- 1 | 0:00.00 | 4:44.43 | 0 | 21342 2 | 4:44.43 | 3:45.54 | 21343 | 38271 3 | 8:30.22 | 3:52.67 | 38272 | 55738 4 | 12:23.14 | 2:48.47 | 55739 | 68385 5 | 15:11.61 | 3:12.40 | 68386 | 82825 6 | 18:24.26 | 4:11.55 | 82826 | 101705 7 | 22:36.06 | 3:38.38 | 101706 | 118093 8 | 26:14.44 | 3:34.34 | 118094 | 134177 9 | 29:49.03 | 3:51.39 | 134178 | 151541 10 | 33:40.42 | 4:02.46 | 151542 | 169737 11 | 37:43.13 | 3:32.63 | 169738 | 185700 12 | 41:16.01 | 3:39.21 | 185701 | 202146 13 | 44:55.22 | 2:49.34 | 202147 | 214855 14 | 47:44.56 | 3:23.69 | 214856 | 230149
Range status and errors
Selected range
Filename C:\Users\Alex\Desktop\Lossless Galaxy ALLexxess\The Shadows\2017 Boxing Shadows 1980-1990 (11CD Box Set Edsel Records)\1982 Life In The Jungle\The Shadows - Life In The Jungle.wav
Peak level 94.3 % Extraction speed 7.0 X Range quality 99.9 % Test CRC 7F959743 Copy CRC 7F959743 Copy OK
No errors occurred
AccurateRip summary
Track 1 not present in databaseTrack 2 not present in databaseTrack 3 not present in databaseTrack 4 not present in databaseTrack 5 not present in databaseTrack 6 not present in databaseTrack 7 not present in databaseTrack 8 not present in databaseTrack 9 not present in databaseTrack 10 not present in databaseTrack 11 not present in databaseTrack 12 not present in databaseTrack 13 not present in databaseTrack 14 not present in database
None of the tracks are present in the AccurateRip database
End of status report
---- CUETools DB Plugin V2.1.6
[CTDB TOCID: lvoubX2rg7rWpZRsdEEuvpI8X54-] foundSubmit result: lvoubX2rg7rWpZRsdEEuvpI8X54- has been confirmedTrack | CTDB Status 1 | (1/1) Accurately ripped 2 | (1/1) Accurately ripped 3 | (1/1) Accurately ripped 4 | (1/1) Accurately ripped 5 | (1/1) Accurately ripped 6 | (1/1) Accurately ripped 7 | (1/1) Accurately ripped 8 | (1/1) Accurately ripped 9 | (1/1) Accurately ripped 10 | (1/1) Accurately ripped 11 | (1/1) Accurately ripped 12 | (1/1) Accurately ripped 13 | (1/1) Accurately ripped 14 | (1/1) Accurately ripped
==== Log checksum 67BA8D76B78EDA55D19021B10EAE8F6D6383DDD6E653FB12E5BD795520B86EB7 ====

Содержание индексной карты (.CUE)

REM GENRE "Rock / Pop / Soft Rock / Pop Rock / Ballad"REM DATE 1982REM DISCID CD0BFC0EREM COMMENT "ExactAudioCopy v1.3"PERFORMER "The Shadows"TITLE "Life In The Jungle"REM COMPOSER "The Shadows"FILE "The Shadows - Life In The Jungle.flac" WAVE  TRACK 01 AUDIO    TITLE "Life In The Jungle"    PERFORMER "The Shadows"    REM COMPOSER "The Shadows"    FLAGS DCP    INDEX 01 00:00:00  TRACK 02 AUDIO    TITLE "High Noon"    PERFORMER "The Shadows"    REM COMPOSER "The Shadows"    FLAGS DCP    INDEX 00 04:43:29    INDEX 01 04:44:43  TRACK 03 AUDIO    TITLE "The Theme From Missing"    PERFORMER "The Shadows"    REM COMPOSER "The Shadows"    FLAGS DCP    INDEX 00 08:28:44    INDEX 01 08:30:22  TRACK 04 AUDIO    TITLE "Treat Me Nice"    PERFORMER "The Shadows"    REM COMPOSER "The Shadows"    FLAGS DCP    INDEX 00 12:21:65    INDEX 01 12:23:14  TRACK 05 AUDIO    TITLE "Cat 'N' Mouse"    PERFORMER "The Shadows"    REM COMPOSER "The Shadows"    FLAGS DCP    INDEX 00 15:09:47    INDEX 01 15:11:61  TRACK 06 AUDIO    TITLE "Chariots Of Fire"    PERFORMER "The Shadows"    REM COMPOSER "The Shadows"    FLAGS DCP    INDEX 00 18:22:47    INDEX 01 18:24:26  TRACK 07 AUDIO    TITLE "No Dancing"    PERFORMER "The Shadows"    REM COMPOSER "The Shadows"    FLAGS DCP    INDEX 00 22:34:64    INDEX 01 22:36:06  TRACK 08 AUDIO    TITLE "Riders Of The Range"    PERFORMER "The Shadows"    REM COMPOSER "The Shadows"    FLAGS DCP    INDEX 00 26:13:42    INDEX 01 26:14:44  TRACK 09 AUDIO    TITLE "The Old Romantics"    PERFORMER "The Shadows"    REM COMPOSER "The Shadows"    FLAGS DCP    INDEX 00 29:47:70    INDEX 01 29:49:03  TRACK 10 AUDIO    TITLE "You Rescue Me"    PERFORMER "The Shadows"    REM COMPOSER "The Shadows"    FLAGS DCP    INDEX 00 33:38:52    INDEX 01 33:40:42  TRACK 11 AUDIO    TITLE "Lili Marlene"    PERFORMER "The Shadows"    REM COMPOSER "The Shadows"    FLAGS DCP    INDEX 00 37:41:25    INDEX 01 37:43:13  TRACK 12 AUDIO    TITLE "Raunchy"    PERFORMER "The Shadows"    REM COMPOSER "The Shadows"    FLAGS DCP    INDEX 00 41:14:68    INDEX 01 41:16:01  TRACK 13 AUDIO    TITLE "Spot The Ball / Bonus Track"    PERFORMER "The Shadows"    REM COMPOSER "The Shadows"    FLAGS DCP    INDEX 00 44:53:42    INDEX 01 44:55:22  TRACK 14 AUDIO    TITLE "The Shady Lady / Bonus Track"    PERFORMER "The Shadows"    REM COMPOSER "The Shadows"    FLAGS DCP    INDEX 00 47:43:06    INDEX 01 47:44:56

Лог проверки качества

-----------------------
DON'T MODIFY THIS FILE
-----------------------
PERFORMER: auCDtect Task Manager, ver. 1.6.0 RC1 build 1.6.0.1Copyright (c) 2008-2010 y-soft. All rights reservedhttp://y-soft.org
ANALYZER: auCDtect: CD records authenticity detector, version 0.8.2Copyright (c) 2004 Oleg Berngardt. All rights reserved.Copyright (c) 2004 Alexander Djourik. All rights reserved.
FILE: The Shadows - Life In The Jungle.wav Size: 541312844 Hash: 688C8C12354CAB131C504EE0C7A6D697 Accuracy: -m8 Conclusion: CDDA 100% Signature: 5B8BF135EBB0E7A2D747DBF30C877175E5ACBF9BFILE: The Shadows - Life In The Jungle.flac Size: 333243868 Hash: 688C8C12354CAB131C504EE0C7A6D697 Accuracy: -m8 Conclusion: CDDA 100% Signature: 617F11596382C63D8DDAC86202616B50AC08401B

Back, Disc, Matrix, Spectrogram

1983 - Live At Abbey Road (00:43:27)

01. The Third Man
02. Thing-Me-Jig
03. Runaway
04. All I Have To Do Is Dream
05. It Doesn’t Matter Anymore
06. Johnny B. Goode
07. Over In A Flash
08. Summer Love ‘59
09. Oh! Boy
10. Crying In The Rain
11. Arty’s Party

Лог создания рипа

Exact Audio Copy V1.3 from 2. September 2016
EAC extraction logfile from 14. November 2017, 7:45
The Shadows / Live At Abbey Road
Used drive : PLEXTOR BD-R PX-B950SA Adapter: 1 ID: 1
Read mode : SecureUtilize accurate stream : YesDefeat audio cache : YesMake use of C2 pointers : No
Read offset correction : 6Overread into Lead-In and Lead-Out : NoFill up missing offset samples with silence : YesDelete leading and trailing silent blocks : NoNull samples used in CRC calculations : YesUsed interface : Native Win32 interface for Win NT & 2000
Used output format : Internal WAV RoutinesSample format : 44.100 Hz; 16 Bit; Stereo
TOC of the extracted CD
Track | Start | Length | Start sector | End sector --------------------------------------------------------- 1 | 0:00.00 | 4:14.34 | 0 | 19083 2 | 4:14.34 | 2:42.46 | 19084 | 31279 3 | 6:57.05 | 4:02.58 | 31280 | 49487 4 | 10:59.63 | 2:55.37 | 49488 | 62649 5 | 13:55.25 | 3:14.51 | 62650 | 77250 6 | 17:10.01 | 3:22.46 | 77251 | 92446 7 | 20:32.47 | 3:25.72 | 92447 | 107893 8 | 23:58.44 | 3:49.48 | 107894 | 125116 9 | 27:48.17 | 2:50.22 | 125117 | 137888 10 | 30:38.39 | 3:16.35 | 137889 | 152623 11 | 33:54.74 | 9:32.22 | 152624 | 195545
Range status and errors
Selected range
Filename C:\Users\Alex\Desktop\Lossless Galaxy ALLexxess\The Shadows\2017 Boxing Shadows 1980-1990 (11CD Box Set Edsel Records)\1983 Live At Abbey Road\The Shadows - Live At Abbey Road.wav
Peak level 94.3 % Extraction speed 6.8 X Range quality 100.0 % Test CRC 60402B20 Copy CRC 60402B20 Copy OK
No errors occurred
AccurateRip summary
Track 1 not present in databaseTrack 2 not present in databaseTrack 3 not present in databaseTrack 4 not present in databaseTrack 5 not present in databaseTrack 6 not present in databaseTrack 7 not present in databaseTrack 8 not present in databaseTrack 9 not present in databaseTrack 10 not present in databaseTrack 11 not present in database
None of the tracks are present in the AccurateRip database
End of status report
---- CUETools DB Plugin V2.1.6
[CTDB TOCID: z63ojZcSwYZAlHmxMQSl5N_rp7Y-] foundSubmit result: z63ojZcSwYZAlHmxMQSl5N_rp7Y- has been confirmedTrack | CTDB Status 1 | (1/1) Accurately ripped 2 | (1/1) Accurately ripped 3 | (1/1) Accurately ripped 4 | (1/1) Accurately ripped 5 | (1/1) Accurately ripped 6 | (1/1) Accurately ripped 7 | (1/1) Accurately ripped 8 | (1/1) Accurately ripped 9 | (1/1) Accurately ripped 10 | (1/1) Accurately ripped 11 | (1/1) Accurately ripped
==== Log checksum 97877254A842E7512A9AC6DC4350B3409DBEFA3F10F5222364D319B1F8C58ACE ====

Содержание индексной карты (.CUE)

REM GENRE "Rock / Pop / Soft Rock / Pop Rock / Ballad"REM DATE 1983REM DISCID 7B0A2F0BREM COMMENT "ExactAudioCopy v1.3"PERFORMER "The Shadows"TITLE "Live At Abbey Road"REM COMPOSER "The Shadows"FILE "The Shadows - Live At Abbey Road.flac" WAVE  TRACK 01 AUDIO    TITLE "The Third Man"    PERFORMER "The Shadows"    REM COMPOSER "The Shadows"    FLAGS DCP    INDEX 01 00:00:00  TRACK 02 AUDIO    TITLE "Thing-Me-Jig"    PERFORMER "The Shadows"    REM COMPOSER "The Shadows"    FLAGS DCP    INDEX 01 04:14:34  TRACK 03 AUDIO    TITLE "Runaway"    PERFORMER "The Shadows"    REM COMPOSER "The Shadows"    FLAGS DCP    INDEX 01 06:57:05  TRACK 04 AUDIO    TITLE "All I Have To Do Is Dream"    PERFORMER "The Shadows"    REM COMPOSER "The Shadows"    FLAGS DCP    INDEX 01 10:59:63  TRACK 05 AUDIO    TITLE "It Doesn't Matter Anymore"    PERFORMER "The Shadows"    REM COMPOSER "The Shadows"    FLAGS DCP    INDEX 01 13:55:25  TRACK 06 AUDIO    TITLE "Johnny B. Goode"    PERFORMER "The Shadows"    REM COMPOSER "The Shadows"    FLAGS DCP    INDEX 01 17:10:01  TRACK 07 AUDIO    TITLE "Over In A Flash"    PERFORMER "The Shadows"    REM COMPOSER "The Shadows"    FLAGS DCP    INDEX 01 20:32:47  TRACK 08 AUDIO    TITLE "Summer Love '59"    PERFORMER "The Shadows"    REM COMPOSER "The Shadows"    FLAGS DCP    INDEX 01 23:58:44  TRACK 09 AUDIO    TITLE "Oh Boy"    PERFORMER "The Shadows"    REM COMPOSER "The Shadows"    FLAGS DCP    INDEX 01 27:48:17  TRACK 10 AUDIO    TITLE "Crying In The Rain"    PERFORMER "The Shadows"    REM COMPOSER "The Shadows"    FLAGS DCP    INDEX 01 30:38:39  TRACK 11 AUDIO    TITLE "Arty's Party"    PERFORMER "The Shadows"    REM COMPOSER "The Shadows"    FLAGS DCP    INDEX 01 33:54:74

Лог проверки качества

-----------------------
DON'T MODIFY THIS FILE
-----------------------
PERFORMER: auCDtect Task Manager, ver. 1.6.0 RC1 build 1.6.0.1Copyright (c) 2008-2010 y-soft. All rights reservedhttp://y-soft.org
ANALYZER: auCDtect: CD records authenticity detector, version 0.8.2Copyright (c) 2004 Oleg Berngardt. All rights reserved.Copyright (c) 2004 Alexander Djourik. All rights reserved.
FILE: The Shadows - Live At Abbey Road.wav Size: 459924236 Hash: 4D8857BBE7DB08F70FA01B0562DFA4AB Accuracy: -m8 Conclusion: MPEG 79% Signature: 0A628C6EAA3C1F32DEA547E59922F6CD9AD4C17AFILE: The Shadows - Live At Abbey Road.flac Size: 300921903 Hash: 4D8857BBE7DB08F70FA01B0562DFA4AB Accuracy: -m8 Conclusion: MPEG 79% Signature: E6CFA5414BF4FCD19286685CFC141FF2B022899A

Back, Disc, Matrix, Spectrogram

1983 - XXV (00:50:37)

01. Africa
02. Going Home (Theme From 'Local Hero')
03. Up Where We Belong
04. You Don’t Have To Say You Love Me
05. The Modern Way
06. Diamonds
07. Time Is Tight
08. Memory
09. Liverpool Days
10. Queen Of Hearts
11. A Whiter Shade Of Pale
Bonus Track:
12. Elevenis

Лог создания рипа

Exact Audio Copy V1.3 from 2. September 2016
EAC extraction logfile from 14. November 2017, 7:15
The Shadows / XXV
Used drive : PLEXTOR BD-R PX-B950SA Adapter: 1 ID: 1
Read mode : SecureUtilize accurate stream : YesDefeat audio cache : YesMake use of C2 pointers : No
Read offset correction : 6Overread into Lead-In and Lead-Out : NoFill up missing offset samples with silence : YesDelete leading and trailing silent blocks : NoNull samples used in CRC calculations : YesUsed interface : Native Win32 interface for Win NT & 2000
Used output format : Internal WAV RoutinesSample format : 44.100 Hz; 16 Bit; Stereo
TOC of the extracted CD
Track | Start | Length | Start sector | End sector --------------------------------------------------------- 1 | 0:00.00 | 4:46.65 | 0 | 21514 2 | 4:46.65 | 3:53.39 | 21515 | 39028 3 | 8:40.29 | 4:23.08 | 39029 | 58761 4 | 13:03.37 | 3:47.04 | 58762 | 75790 5 | 16:50.41 | 6:05.43 | 75791 | 103208 6 | 22:56.09 | 3:48.13 | 103209 | 120321 7 | 26:44.22 | 3:41.23 | 120322 | 136919 8 | 30:25.45 | 3:56.00 | 136920 | 154619 9 | 34:21.45 | 3:46.66 | 154620 | 171635 10 | 38:08.36 | 3:04.11 | 171636 | 185446 11 | 41:12.47 | 5:02.37 | 185447 | 208133 12 | 46:15.09 | 4:21.73 | 208134 | 227781
Range status and errors
Selected range
Filename C:\Users\Alex\Desktop\Lossless Galaxy ALLexxess\The Shadows\2017 Boxing Shadows 1980-1990 (11CD Box Set Edsel Records)\1983 XXV\The Shadows - XXV.wav
Peak level 94.3 % Extraction speed 7.0 X Range quality 100.0 % Test CRC 5557D71B Copy CRC 5557D71B Copy OK
No errors occurred
AccurateRip summary
Track 1 not present in databaseTrack 2 not present in databaseTrack 3 not present in databaseTrack 4 not present in databaseTrack 5 not present in databaseTrack 6 not present in databaseTrack 7 not present in databaseTrack 8 not present in databaseTrack 9 not present in databaseTrack 10 not present in databaseTrack 11 not present in databaseTrack 12 not present in database
None of the tracks are present in the AccurateRip database
End of status report
---- CUETools DB Plugin V2.1.6
[CTDB TOCID: IjDTSg4NjaABRuXO901hOcvyY.c-] foundSubmit result: IjDTSg4NjaABRuXO901hOcvyY.c- has been confirmedTrack | CTDB Status 1 | (1/1) Accurately ripped 2 | (1/1) Accurately ripped 3 | (1/1) Accurately ripped 4 | (1/1) Accurately ripped 5 | (1/1) Accurately ripped 6 | (1/1) Accurately ripped 7 | (1/1) Accurately ripped 8 | (1/1) Accurately ripped 9 | (1/1) Accurately ripped 10 | (1/1) Accurately ripped 11 | (1/1) Accurately ripped 12 | (1/1) Accurately ripped
==== Log checksum 17C03031ECFDABDD3913E0A336EE5F2359A69C04421FA94E12C5A9E714590155 ====

Содержание индексной карты (.CUE)

REM GENRE "Rock / Pop / Soft Rock / Pop Rock / Ballad"REM DATE 1983REM DISCID A70BDD0CREM COMMENT "ExactAudioCopy v1.3"PERFORMER "The Shadows"TITLE "XXV"REM COMPOSER "The Shadows"FILE "The Shadows - XXV.flac" WAVE  TRACK 01 AUDIO    TITLE "Africa"    PERFORMER "The Shadows"    REM COMPOSER "The Shadows"    FLAGS DCP    INDEX 01 00:00:00  TRACK 02 AUDIO    TITLE "Going Home (Theme From 'Local Hero')"    PERFORMER "The Shadows"    REM COMPOSER "The Shadows"    FLAGS DCP    INDEX 00 04:46:18    INDEX 01 04:46:65  TRACK 03 AUDIO    TITLE "Up Where We Belong"    PERFORMER "The Shadows"    REM COMPOSER "The Shadows"    FLAGS DCP    INDEX 00 08:39:05    INDEX 01 08:40:29  TRACK 04 AUDIO    TITLE "You Don't Have To Say You Love Me"    PERFORMER "The Shadows"    REM COMPOSER "The Shadows"    FLAGS DCP    INDEX 00 13:02:47    INDEX 01 13:03:37  TRACK 05 AUDIO    TITLE "The Modern Way"    PERFORMER "The Shadows"    REM COMPOSER "The Shadows"    FLAGS DCP    INDEX 00 16:49:02    INDEX 01 16:50:41  TRACK 06 AUDIO    TITLE "Diamonds"    PERFORMER "The Shadows"    REM COMPOSER "The Shadows"    FLAGS DCP    INDEX 00 22:54:34    INDEX 01 22:56:09  TRACK 07 AUDIO    TITLE "Time Is Tight"    PERFORMER "The Shadows"    REM COMPOSER "The Shadows"    FLAGS DCP    INDEX 00 26:42:65    INDEX 01 26:44:22  TRACK 08 AUDIO    TITLE "Memory"    PERFORMER "The Shadows"    REM COMPOSER "The Shadows"    FLAGS DCP    INDEX 00 30:23:68    INDEX 01 30:25:45  TRACK 09 AUDIO    TITLE "Liverpool Days"    PERFORMER "The Shadows"    REM COMPOSER "The Shadows"    FLAGS DCP    INDEX 00 34:19:63    INDEX 01 34:21:45  TRACK 10 AUDIO    TITLE "Queen Of Hearts"    PERFORMER "The Shadows"    REM COMPOSER "The Shadows"    FLAGS DCP    INDEX 00 38:06:48    INDEX 01 38:08:36  TRACK 11 AUDIO    TITLE "A Whiter Shade Of Pale"    PERFORMER "The Shadows"    REM COMPOSER "The Shadows"    FLAGS DCP    INDEX 00 41:10:73    INDEX 01 41:12:47  TRACK 12 AUDIO    TITLE "Elevenis / Bonus Track"    PERFORMER "The Shadows"    REM COMPOSER "The Shadows"    FLAGS DCP    INDEX 00 46:13:58    INDEX 01 46:15:09

Лог проверки качества

-----------------------
DON'T MODIFY THIS FILE
-----------------------
PERFORMER: auCDtect Task Manager, ver. 1.6.0 RC1 build 1.6.0.1Copyright (c) 2008-2010 y-soft. All rights reservedhttp://y-soft.org
ANALYZER: auCDtect: CD records authenticity detector, version 0.8.2Copyright (c) 2004 Oleg Berngardt. All rights reserved.Copyright (c) 2004 Alexander Djourik. All rights reserved.
FILE: The Shadows - XXV.wav Size: 535743308 Hash: 357064700EA2A78B63FD76D185C15DAD Accuracy: -m8 Conclusion: CDDA 100% Signature: 843DE3B14D3B5AE8CF5E478CDD25C81BF1F7E11BFILE: The Shadows - XXV.flac Size: 321436103 Hash: 357064700EA2A78B63FD76D185C15DAD Accuracy: -m8 Conclusion: CDDA 100% Signature: 3EFED0B54371B866CAF4F6BE9138EDCB13B01CDC

Back, Disc, Matrix, Spectrogram

1984 - Guardian Angel (00:43:39)

01. How Do I Love Thee
02. Hammerhead
03. The Saturday Western
04. Look Back On Love (From The Film 'Terminal Choice')
05. Johnny Staccato
06. I Will Return
07. (I’m Gonna Be Your) Guardian Angel
08. Can’t Play Your Game
09. On A Night Like This
10. Turning Point
11. Our Albert

Лог создания рипа

Exact Audio Copy V1.3 from 2. September 2016
EAC extraction logfile from 14. November 2017, 6:45
The Shadows / Guardian Angel
Used drive : PLEXTOR BD-R PX-B950SA Adapter: 1 ID: 1
Read mode : SecureUtilize accurate stream : YesDefeat audio cache : YesMake use of C2 pointers : No
Read offset correction : 6Overread into Lead-In and Lead-Out : NoFill up missing offset samples with silence : YesDelete leading and trailing silent blocks : NoNull samples used in CRC calculations : YesUsed interface : Native Win32 interface for Win NT & 2000
Used output format : Internal WAV RoutinesSample format : 44.100 Hz; 16 Bit; Stereo
TOC of the extracted CD
Track | Start | Length | Start sector | End sector --------------------------------------------------------- 1 | 0:00.00 | 3:07.18 | 0 | 14042 2 | 3:07.18 | 4:01.08 | 14043 | 32125 3 | 7:08.26 | 3:33.29 | 32126 | 48129 4 | 10:41.55 | 4:31.25 | 48130 | 68479 5 | 15:13.05 | 3:54.48 | 68480 | 86077 6 | 19:07.53 | 3:12.02 | 86078 | 100479 7 | 22:19.55 | 5:51.28 | 100480 | 126832 8 | 28:11.08 | 3:55.51 | 126833 | 144508 9 | 32:06.59 | 3:51.53 | 144509 | 161886 10 | 35:58.37 | 4:48.58 | 161887 | 183544 11 | 40:47.20 | 2:51.56 | 183545 | 196425
Range status and errors
Selected range
Filename C:\Users\Alex\Desktop\Lossless Galaxy ALLexxess\The Shadows\2017 Boxing Shadows 1980-1990 (11CD Box Set Edsel Records)\1984 Guardian Angel\The Shadows - Guardian Angel.wav
Peak level 94.3 % Extraction speed 6.7 X Range quality 100.0 % Test CRC BE7D190C Copy CRC BE7D190C Copy OK
No errors occurred
AccurateRip summary
Track 1 not present in databaseTrack 2 not present in databaseTrack 3 not present in databaseTrack 4 not present in databaseTrack 5 not present in databaseTrack 6 not present in databaseTrack 7 not present in databaseTrack 8 not present in databaseTrack 9 not present in databaseTrack 10 not present in databaseTrack 11 not present in database
None of the tracks are present in the AccurateRip database
End of status report
---- CUETools DB Plugin V2.1.6
[CTDB TOCID: dpkZZPNYj0No8bQIRKKTv.sWdpY-] foundSubmit result: dpkZZPNYj0No8bQIRKKTv.sWdpY- has been confirmedTrack | CTDB Status 1 | (1/1) Accurately ripped 2 | (1/1) Accurately ripped 3 | (1/1) Accurately ripped 4 | (1/1) Accurately ripped 5 | (1/1) Accurately ripped 6 | (1/1) Accurately ripped 7 | (1/1) Accurately ripped 8 | (1/1) Accurately ripped 9 | (1/1) Accurately ripped 10 | (1/1) Accurately ripped 11 | (1/1) Accurately ripped
==== Log checksum B9838309DB28B3DF16003DF0C3FF7164457BD720AF77415C568C2728DE04CF5E ====

Содержание индексной карты (.CUE)

REM GENRE "Rock / Pop / Soft Rock / Pop Rock / Ballad"REM DATE 1984REM DISCID 920A3B0BREM COMMENT "ExactAudioCopy v1.3"PERFORMER "The Shadows"TITLE "Guardian Angel"REM COMPOSER "The Shadows"FILE "The Shadows - Guardian Angel.flac" WAVE  TRACK 01 AUDIO    TITLE "How I Love Thee"    PERFORMER "The Shadows"    REM COMPOSER "The Shadows"    FLAGS DCP    INDEX 01 00:00:00  TRACK 02 AUDIO    TITLE "Hammerhead"    PERFORMER "The Shadows"    REM COMPOSER "The Shadows"    FLAGS DCP    INDEX 00 03:06:20    INDEX 01 03:07:18  TRACK 03 AUDIO    TITLE "The Saturday Western"    PERFORMER "The Shadows"    REM COMPOSER "The Shadows"    FLAGS DCP    INDEX 00 07:07:18    INDEX 01 07:08:26  TRACK 04 AUDIO    TITLE "Look Back On Love (From The Film 'Terminal Choice')"    PERFORMER "The Shadows"    REM COMPOSER "The Shadows"    FLAGS DCP    INDEX 00 10:40:51    INDEX 01 10:41:55  TRACK 05 AUDIO    TITLE "Johnny Staccato"    PERFORMER "The Shadows"    REM COMPOSER "The Shadows"    FLAGS DCP    INDEX 00 15:11:21    INDEX 01 15:13:05  TRACK 06 AUDIO    TITLE "I Will Return"    PERFORMER "The Shadows"    REM COMPOSER "The Shadows"    FLAGS DCP    INDEX 00 19:06:34    INDEX 01 19:07:53  TRACK 07 AUDIO    TITLE "(I'm Gonna Be Your) Guardian Angel"    PERFORMER "The Shadows"    REM COMPOSER "The Shadows"    FLAGS DCP    INDEX 00 22:18:08    INDEX 01 22:19:55  TRACK 08 AUDIO    TITLE "Can't Play Your Game"    PERFORMER "The Shadows"    REM COMPOSER "The Shadows"    FLAGS DCP    INDEX 00 28:09:31    INDEX 01 28:11:08  TRACK 09 AUDIO    TITLE "On A Night Like This"    PERFORMER "The Shadows"    REM COMPOSER "The Shadows"    FLAGS DCP    INDEX 00 32:05:11    INDEX 01 32:06:59  TRACK 10 AUDIO    TITLE "Turning Point"    PERFORMER "The Shadows"    REM COMPOSER "The Shadows"    FLAGS DCP    INDEX 00 35:56:59    INDEX 01 35:58:37  TRACK 11 AUDIO    TITLE "Our Albert"    PERFORMER "The Shadows"    REM COMPOSER "The Shadows"    FLAGS DCP    INDEX 00 40:45:21    INDEX 01 40:47:20

Лог проверки качества

-----------------------
DON'T MODIFY THIS FILE
-----------------------
PERFORMER: auCDtect Task Manager, ver. 1.6.0 RC1 build 1.6.0.1Copyright (c) 2008-2010 y-soft. All rights reservedhttp://y-soft.org
ANALYZER: auCDtect: CD records authenticity detector, version 0.8.2Copyright (c) 2004 Oleg Berngardt. All rights reserved.Copyright (c) 2004 Alexander Djourik. All rights reserved.
FILE: The Shadows - Guardian Angel.wav Size: 461993996 Hash: B66102515393E166BC34325D2CEC917D Accuracy: -m8 Conclusion: CDDA 100% Signature: 4F85A5CCFDB02EC19E4BAD7434266D6D66BD9CF4FILE: The Shadows - Guardian Angel.flac Size: 269218217 Hash: B66102515393E166BC34325D2CEC917D Accuracy: -m8 Conclusion: CDDA 100% Signature: 489D4709C79C10D677DF9FD3ADC4AAB26E6DE836

Back, Disc, Matrix, Spectrogram

1986 - Moonlight Shadows (01:15:27)

01. Every Breath You Take
02. Hello
03. The Power Of Love
04. Hey Jude
05. Against All Odds
06. Memory
07. Dancing In The Dark
08. Whiter Shade Of Pale
09. Moonlight Shadow
10. Three Times A Lady
11. Sailing
12. I Just Called To Say I Love You
13. I Know Him So Well
14. Nights In White Satin
15. Imagine/Woman
16. Walk Of Life
Bonus Tracks:
17. Dancing In The Dark (7'' Remix)
18. Dancing In The Dark (12'' Remix)

Лог создания рипа

Exact Audio Copy V1.3 from 2. September 2016
EAC extraction logfile from 14. November 2017, 6:12
The Shadows / Moonlight Shadows
Used drive : PLEXTOR BD-R PX-B950SA Adapter: 1 ID: 1
Read mode : SecureUtilize accurate stream : YesDefeat audio cache : YesMake use of C2 pointers : No
Read offset correction : 6Overread into Lead-In and Lead-Out : NoFill up missing offset samples with silence : YesDelete leading and trailing silent blocks : NoNull samples used in CRC calculations : YesUsed interface : Native Win32 interface for Win NT & 2000
Used output format : Internal WAV RoutinesSample format : 44.100 Hz; 16 Bit; Stereo
TOC of the extracted CD
Track | Start | Length | Start sector | End sector --------------------------------------------------------- 1 | 0:00.00 | 4:09.59 | 0 | 18733 2 | 4:09.59 | 4:10.04 | 18734 | 37487 3 | 8:19.63 | 4:53.68 | 37488 | 59530 4 | 13:13.56 | 3:45.61 | 59531 | 76466 5 | 16:59.42 | 3:26.03 | 76467 | 91919 6 | 20:25.45 | 3:57.25 | 91920 | 109719 7 | 24:22.70 | 3:45.31 | 109720 | 126625 8 | 28:08.26 | 5:01.21 | 126626 | 149221 9 | 33:09.47 | 3:43.14 | 149222 | 165960 10 | 36:52.61 | 3:53.53 | 165961 | 183488 11 | 40:46.39 | 4:50.61 | 183489 | 205299 12 | 45:37.25 | 4:20.03 | 205300 | 224802 13 | 49:57.28 | 4:11.74 | 224803 | 243701 14 | 54:09.27 | 4:26.27 | 243702 | 263678 15 | 58:35.54 | 3:34.48 | 263679 | 279776 16 | 62:10.27 | 4:04.01 | 279777 | 298077 17 | 66:14.28 | 3:40.73 | 298078 | 314650 18 | 69:55.26 | 5:31.70 | 314651 | 339545
Range status and errors
Selected range
Filename C:\Users\Alex\Desktop\Lossless Galaxy ALLexxess\The Shadows\2017 Boxing Shadows 1980-1990 (11CD Box Set Edsel Records)\1986 Moonlight Shadows\The Shadows - Moonlight Shadows.wav
Peak level 94.3 % Extraction speed 8.1 X Range quality 100.0 % Test CRC F7BA324E Copy CRC F7BA324E Copy OK
No errors occurred
AccurateRip summary
Track 1 not present in databaseTrack 2 not present in databaseTrack 3 not present in databaseTrack 4 not present in databaseTrack 5 not present in databaseTrack 6 not present in databaseTrack 7 not present in databaseTrack 8 not present in databaseTrack 9 not present in databaseTrack 10 not present in databaseTrack 11 not present in databaseTrack 12 not present in databaseTrack 13 not present in databaseTrack 14 not present in databaseTrack 15 not present in databaseTrack 16 not present in databaseTrack 17 not present in databaseTrack 18 not present in database
None of the tracks are present in the AccurateRip database
End of status report
---- CUETools DB Plugin V2.1.6
[CTDB TOCID: VdVR2TLJfAAgTL4Z2Oc4aBQEguo-] foundSubmit result: VdVR2TLJfAAgTL4Z2Oc4aBQEguo- has been confirmedTrack | CTDB Status 1 | (1/1) Accurately ripped 2 | (1/1) Accurately ripped 3 | (1/1) Accurately ripped 4 | (1/1) Accurately ripped 5 | (1/1) Accurately ripped 6 | (1/1) Accurately ripped 7 | (1/1) Accurately ripped 8 | (1/1) Accurately ripped 9 | (1/1) Accurately ripped 10 | (1/1) Accurately ripped 11 | (1/1) Accurately ripped 12 | (1/1) Accurately ripped 13 | (1/1) Accurately ripped 14 | (1/1) Accurately ripped 15 | (1/1) Accurately ripped 16 | (1/1) Accurately ripped 17 | (1/1) Accurately ripped 18 | (1/1) Accurately ripped
==== Log checksum 341F082B76BB8BAFBB858E8847C37D16AEEEB7127F3284AEAA70AB003D2FE072 ====

Содержание индексной карты (.CUE)

REM GENRE "Rock / Pop / Soft Rock / Pop Rock / Ballad"REM DATE 1986REM DISCID 0E11AF12REM COMMENT "ExactAudioCopy v1.3"PERFORMER "The Shadows"TITLE "Moonlight Shadows"REM COMPOSER "The Shadows"FILE "The Shadows - Moonlight Shadows.flac" WAVE  TRACK 01 AUDIO    TITLE "Every Breath You Take"    PERFORMER "The Shadows"    REM COMPOSER "The Shadows"    FLAGS DCP    INDEX 01 00:00:00  TRACK 02 AUDIO    TITLE "Hello"    PERFORMER "The Shadows"    REM COMPOSER "The Shadows"    FLAGS DCP    INDEX 00 04:09:16    INDEX 01 04:09:59  TRACK 03 AUDIO    TITLE "The Power Of Love"    PERFORMER "The Shadows"    REM COMPOSER "The Shadows"    FLAGS DCP    INDEX 00 08:17:60    INDEX 01 08:19:63  TRACK 04 AUDIO    TITLE "Hey Jude"    PERFORMER "The Shadows"    REM COMPOSER "The Shadows"    FLAGS DCP    INDEX 00 13:13:06    INDEX 01 13:13:56  TRACK 05 AUDIO    TITLE "Against All Odds (Take A Look At Me Now)"    PERFORMER "The Shadows"    REM COMPOSER "The Shadows"    FLAGS DCP    INDEX 00 16:58:58    INDEX 01 16:59:42  TRACK 06 AUDIO    TITLE "Memory"    PERFORMER "The Shadows"    REM COMPOSER "The Shadows"    FLAGS DCP    INDEX 00 20:24:11    INDEX 01 20:25:45  TRACK 07 AUDIO    TITLE "Dancing In The Dark"    PERFORMER "The Shadows"    REM COMPOSER "The Shadows"    FLAGS DCP    INDEX 01 24:22:70  TRACK 08 AUDIO    TITLE "Whiter Shade Of Pale"    PERFORMER "The Shadows"    REM COMPOSER "The Shadows"    FLAGS DCP    INDEX 00 28:07:07    INDEX 01 28:08:26  TRACK 09 AUDIO    TITLE "Moonlight Shadow"    PERFORMER "The Shadows"    REM COMPOSER "The Shadows"    FLAGS DCP    INDEX 00 33:09:06    INDEX 01 33:09:47  TRACK 10 AUDIO    TITLE "Three Times A Lady"    PERFORMER "The Shadows"    REM COMPOSER "The Shadows"    FLAGS DCP    INDEX 00 36:52:02    INDEX 01 36:52:61  TRACK 11 AUDIO    TITLE "Sailing"    PERFORMER "The Shadows"    REM COMPOSER "The Shadows"    FLAGS DCP    INDEX 00 40:44:70    INDEX 01 40:46:39  TRACK 12 AUDIO    TITLE "I Just Called To Say I Love You"    PERFORMER "The Shadows"    REM COMPOSER "The Shadows"    FLAGS DCP    INDEX 00 45:35:44    INDEX 01 45:37:25  TRACK 13 AUDIO    TITLE "I Know Him So Well"    PERFORMER "The Shadows"    REM COMPOSER "The Shadows"    FLAGS DCP    INDEX 00 49:56:43    INDEX 01 49:57:28  TRACK 14 AUDIO    TITLE "Nights In White Satin"    PERFORMER "The Shadows"    REM COMPOSER "The Shadows"    FLAGS DCP    INDEX 00 54:08:16    INDEX 01 54:09:27  TRACK 15 AUDIO    TITLE "Imagine / Woman"    PERFORMER "The Shadows"    REM COMPOSER "The Shadows"    FLAGS DCP    INDEX 00 58:33:66    INDEX 01 58:35:54  TRACK 16 AUDIO    TITLE "Walk Of Life"    PERFORMER "The Shadows"    REM COMPOSER "The Shadows"    FLAGS DCP    INDEX 00 62:07:12    INDEX 01 62:10:27  TRACK 17 AUDIO    TITLE "Dancing In The Dark (7'' Remix) / Bonus Track"    PERFORMER "The Shadows"    REM COMPOSER "The Shadows"    FLAGS DCP    INDEX 00 66:13:36    INDEX 01 66:14:28  TRACK 18 AUDIO    TITLE "Dancing In The Dark (12'' Remix) / Bonus Track"    PERFORMER "The Shadows"    REM COMPOSER "The Shadows"    FLAGS DCP    INDEX 00 69:53:53    INDEX 01 69:55:26

Лог проверки качества

-----------------------
DON'T MODIFY THIS FILE
-----------------------
PERFORMER: auCDtect Task Manager, ver. 1.6.0 RC1 build 1.6.0.1Copyright (c) 2008-2010 y-soft. All rights reservedhttp://y-soft.org
ANALYZER: auCDtect: CD records authenticity detector, version 0.8.2Copyright (c) 2004 Oleg Berngardt. All rights reserved.Copyright (c) 2004 Alexander Djourik. All rights reserved.
FILE: The Shadows - Moonlight Shadows.wav Size: 798612236 Hash: 7358699830064AB7EF7ED383489B1F5A Accuracy: -m8 Conclusion: MPEG 91% Signature: 78285B324E1C33E93956BDFC63B34CA715412785FILE: The Shadows - Moonlight Shadows.flac Size: 468701456 Hash: 7358699830064AB7EF7ED383489B1F5A Accuracy: -m8 Conclusion: MPEG 91% Signature: 079558DBC04A27A21ABAECEDCBE549EB8CED1B0E

Back, Disc, Matrix, Spectrogram

1987 - Simply ... Shadows (01:07:19)

01. I Knew You Were Waiting For Me
02. We Don’t Need Another Hero
03. Walking In The Air
04. Careless Whisper
05. Don’t Give Up
06. I Guess That’s Why They Call It The Blues
07. A Heart Will Break Tonight
08. The Lady In Red
09. Pulaski
10. Take My Breath Away
11. The Music Of The Night (From The Phantom Of The Opera)
12. The Themes From 'EastEnders' & 'Howards’ Way'
13. I Want To Know What Love Is
14. The Skye Boat Song
15. Jealous Guy
16. Chain Reaction

Лог создания рипа

Exact Audio Copy V1.3 from 2. September 2016
EAC extraction logfile from 13. November 2017, 18:07
The Shadows / Simply ... Shadows
Used drive : PLEXTOR BD-R PX-B950SA Adapter: 1 ID: 1
Read mode : SecureUtilize accurate stream : YesDefeat audio cache : YesMake use of C2 pointers : No
Read offset correction : 6Overread into Lead-In and Lead-Out : NoFill up missing offset samples with silence : YesDelete leading and trailing silent blocks : NoNull samples used in CRC calculations : YesUsed interface : Native Win32 interface for Win NT & 2000
Used output format : Internal WAV RoutinesSample format : 44.100 Hz; 16 Bit; Stereo
TOC of the extracted CD
Track | Start | Length | Start sector | End sector --------------------------------------------------------- 1 | 0:00.00 | 4:04.28 | 0 | 18327 2 | 4:04.28 | 4:18.04 | 18328 | 37681 3 | 8:22.32 | 3:54.03 | 37682 | 55234 4 | 12:16.35 | 4:21.20 | 55235 | 74829 5 | 16:37.55 | 5:33.06 | 74830 | 99810 6 | 22:10.61 | 3:24.64 | 99811 | 115174 7 | 25:35.50 | 3:32.52 | 115175 | 131126 8 | 29:08.27 | 4:11.60 | 131127 | 150011 9 | 33:20.12 | 3:25.02 | 150012 | 165388 10 | 36:45.14 | 4:27.26 | 165389 | 185439 11 | 41:12.40 | 4:53.43 | 185440 | 207457 12 | 46:06.08 | 3:27.20 | 207458 | 223002 13 | 49:33.28 | 4:46.04 | 223003 | 244456 14 | 54:19.32 | 3:55.08 | 244457 | 262089 15 | 58:14.40 | 4:11.18 | 262090 | 280932 16 | 62:25.58 | 4:52.65 | 280933 | 302897
Range status and errors
Selected range
Filename C:\Users\Alex\Desktop\Lossless Galaxy ALLexxess\The Shadows\2017 Boxing Shadows 1980-1990 (11CD Box Set Edsel Records)\1987 Simply ... Shadows\The Shadows - Simply ... Shadows.wav
Peak level 94.3 % Extraction speed 7.6 X Range quality 100.0 % Test CRC E76E249A Copy CRC E76E249A Copy OK
No errors occurred
AccurateRip summary
Track 1 not present in databaseTrack 2 not present in databaseTrack 3 not present in databaseTrack 4 not present in databaseTrack 5 not present in databaseTrack 6 not present in databaseTrack 7 not present in databaseTrack 8 not present in databaseTrack 9 not present in databaseTrack 10 not present in databaseTrack 11 not present in databaseTrack 12 not present in databaseTrack 13 not present in databaseTrack 14 not present in databaseTrack 15 not present in databaseTrack 16 not present in database
None of the tracks are present in the AccurateRip database
End of status report
---- CUETools DB Plugin V2.1.6
[CTDB TOCID: 0kTTo29SFZ1F8kHWoU510Tov84E-] disk not present in databaseSubmit result: 0kTTo29SFZ1F8kHWoU510Tov84E- has been uploaded
==== Log checksum 9054FFCCB06DADB1082DA8FE1590A494A8E25A2138BDA35F7C69658A9B4EAD9B ====

Содержание индексной карты (.CUE)

REM GENRE "Rock / Pop / Soft Rock / Pop Rock / Ballad"REM DATE 1987REM DISCID EF0FC610REM COMMENT "ExactAudioCopy v1.3"PERFORMER "The Shadows"TITLE "Simply ... Shadows"REM COMPOSER "The Shadows"FILE "The Shadows - Simply ... Shadows.flac" WAVE  TRACK 01 AUDIO    TITLE "I Knew You Were Waiting (For Me)"    PERFORMER "The Shadows"    REM COMPOSER "The Shadows"    FLAGS DCP    INDEX 01 00:00:00  TRACK 02 AUDIO    TITLE "We Don't Need Another Hero"    PERFORMER "The Shadows"    REM COMPOSER "The Shadows"    FLAGS DCP    INDEX 00 04:02:63    INDEX 01 04:04:28  TRACK 03 AUDIO    TITLE "Walking In The Air"    PERFORMER "The Shadows"    REM COMPOSER "The Shadows"    FLAGS DCP    INDEX 00 08:21:01    INDEX 01 08:22:32  TRACK 04 AUDIO    TITLE "Careless Whisper"    PERFORMER "The Shadows"    REM COMPOSER "The Shadows"    FLAGS DCP    INDEX 00 12:14:26    INDEX 01 12:16:35  TRACK 05 AUDIO    TITLE "Don't Give Up"    PERFORMER "The Shadows"    REM COMPOSER "The Shadows"    FLAGS DCP    INDEX 00 16:36:23    INDEX 01 16:37:55  TRACK 06 AUDIO    TITLE "I Guess That’s Why They Call It The Blues"    PERFORMER "The Shadows"    REM COMPOSER "The Shadows"    FLAGS DCP    INDEX 00 22:09:33    INDEX 01 22:10:61  TRACK 07 AUDIO    TITLE "A Heart Will Break Tonight"    PERFORMER "The Shadows"    REM COMPOSER "The Shadows"    FLAGS DCP    INDEX 00 25:34:51    INDEX 01 25:35:50  TRACK 08 AUDIO    TITLE "The Lady In Red"    PERFORMER "The Shadows"    REM COMPOSER "The Shadows"    FLAGS DCP    INDEX 00 29:07:11    INDEX 01 29:08:27  TRACK 09 AUDIO    TITLE "Pulaski"    PERFORMER "The Shadows"    REM COMPOSER "The Shadows"    FLAGS DCP    INDEX 00 33:18:27    INDEX 01 33:20:12  TRACK 10 AUDIO    TITLE "Take My Breath Away"    PERFORMER "The Shadows"    REM COMPOSER "The Shadows"    FLAGS DCP    INDEX 00 36:43:35    INDEX 01 36:45:14  TRACK 11 AUDIO    TITLE "The Music Of The Night (From The Phantom Of The Opera)"    PERFORMER "The Shadows"    REM COMPOSER "The Shadows"    FLAGS DCP    INDEX 00 41:10:56    INDEX 01 41:12:40  TRACK 12 AUDIO    TITLE "The Themes From 'EastEnders' & 'Howards’ Way'"    PERFORMER "The Shadows"    REM COMPOSER "The Shadows"    FLAGS DCP    INDEX 00 46:04:38    INDEX 01 46:06:08  TRACK 13 AUDIO    TITLE "I Want To Know What Love Is"    PERFORMER "The Shadows"    REM COMPOSER "The Shadows"    FLAGS DCP    INDEX 00 49:31:37    INDEX 01 49:33:28  TRACK 14 AUDIO    TITLE "The Skye Boat Song"    PERFORMER "The Shadows"    REM COMPOSER "The Shadows"    FLAGS DCP    INDEX 00 54:18:58    INDEX 01 54:19:32  TRACK 15 AUDIO    TITLE "Jealous Guy"    PERFORMER "The Shadows"    REM COMPOSER "The Shadows"    FLAGS DCP    INDEX 00 58:13:56    INDEX 01 58:14:40  TRACK 16 AUDIO    TITLE "Chain Reaction"    PERFORMER "The Shadows"    REM COMPOSER "The Shadows"    FLAGS DCP    INDEX 00 62:24:36    INDEX 01 62:25:58

Лог проверки качества

-----------------------
DON'T MODIFY THIS FILE
-----------------------
PERFORMER: auCDtect Task Manager, ver. 1.6.0 RC1 build 1.6.0.1Copyright (c) 2008-2010 y-soft. All rights reservedhttp://y-soft.org
ANALYZER: auCDtect: CD records authenticity detector, version 0.8.2Copyright (c) 2004 Oleg Berngardt. All rights reserved.Copyright (c) 2004 Alexander Djourik. All rights reserved.
FILE: The Shadows - Simply ... Shadows.wav Size: 712416140 Hash: CC23C322ABED2AF471F7C3AE5DCC99E2 Accuracy: -m8 Conclusion: CDDA 100% Signature: 12FAE183159830B8375F8F2EA82D1E5F29A195E8FILE: The Shadows - Simply ... Shadows.flac Size: 418274143 Hash: CC23C322ABED2AF471F7C3AE5DCC99E2 Accuracy: -m8 Conclusion: CDDA 100% Signature: 862A801D33EDE6C6E5EE484C2D6FB2802E295564

Back, Disc, Matrix, Spectrogram

1989 - Steppin' To The Shadows (01:08:59)

01. You Win Again
02. I Wanna Dance With Somebody (Who Loves Me)
03. He Ain’t Heavy, He’s My Brother
04. Candle In The Wind
05. Farewell My Lovely
06. Mountains Of The Moon
07. Nothing’s Gonna Change My Love For You
08. Heaven Is A Place On Earth
09. When The Going Gets Tough
10. Alone
11. All I Ask Of You
12. Stack-It
13. Shoba
14. You Keep Me Hangin’ On
15. Some People
16. One Moment In Time

Лог создания рипа

Exact Audio Copy V1.3 from 2. September 2016
EAC extraction logfile from 13. November 2017, 17:36
The Shadows / Steppin' To The Shadows
Used drive : PLEXTOR BD-R PX-B950SA Adapter: 1 ID: 1
Read mode : SecureUtilize accurate stream : YesDefeat audio cache : YesMake use of C2 pointers : No
Read offset correction : 6Overread into Lead-In and Lead-Out : NoFill up missing offset samples with silence : YesDelete leading and trailing silent blocks : NoNull samples used in CRC calculations : YesUsed interface : Native Win32 interface for Win NT & 2000
Used output format : Internal WAV RoutinesSample format : 44.100 Hz; 16 Bit; Stereo
TOC of the extracted CD
Track | Start | Length | Start sector | End sector --------------------------------------------------------- 1 | 0:00.00 | 3:54.18 | 0 | 17567 2 | 3:54.18 | 4:54.18 | 17568 | 39635 3 | 8:48.36 | 4:29.54 | 39636 | 59864 4 | 13:18.15 | 3:50.14 | 59865 | 77128 5 | 17:08.29 | 4:08.36 | 77129 | 95764 6 | 21:16.65 | 4:31.33 | 95765 | 116122 7 | 25:48.23 | 4:14.41 | 116123 | 135213 8 | 30:02.64 | 4:01.42 | 135214 | 153330 9 | 34:04.31 | 4:26.44 | 153331 | 173324 10 | 38:31.00 | 3:42.07 | 173325 | 189981 11 | 42:13.07 | 4:13.74 | 189982 | 209030 12 | 46:27.06 | 5:06.16 | 209031 | 231996 13 | 51:33.22 | 4:37.01 | 231997 | 252772 14 | 56:10.23 | 4:13.09 | 252773 | 271756 15 | 60:23.32 | 3:54.72 | 271757 | 289378 16 | 64:18.29 | 4:40.11 | 289379 | 310389
Range status and errors
Selected range
Filename C:\Users\Alex\Desktop\Lossless Galaxy ALLexxess\The Shadows\2017 Boxing Shadows 1980-1990 (11CD Box Set Edsel Records)\1989 Steppin' To The Shadows\The Shadows - Steppin' To The Shadows.wav
Peak level 94.3 % Extraction speed 7.6 X Range quality 100.0 % Test CRC 653A7108 Copy CRC 653A7108 Copy OK
No errors occurred
AccurateRip summary
Track 1 not present in databaseTrack 2 not present in databaseTrack 3 not present in databaseTrack 4 not present in databaseTrack 5 not present in databaseTrack 6 not present in databaseTrack 7 not present in databaseTrack 8 not present in databaseTrack 9 not present in databaseTrack 10 not present in databaseTrack 11 not present in databaseTrack 12 not present in databaseTrack 13 not present in databaseTrack 14 not present in databaseTrack 15 not present in databaseTrack 16 not present in database
None of the tracks are present in the AccurateRip database
End of status report
---- CUETools DB Plugin V2.1.6
[CTDB TOCID: YgdY6SjSfqsyhJf4QrRwAMdvmL0-] disk not present in databaseSubmit result: YgdY6SjSfqsyhJf4QrRwAMdvmL0- has been uploaded
==== Log checksum B0964CF6D48C660DD3B5CEE2211D68582DFAB10BC0682F3B5BF7A5A7C96C5EB4 ====

Содержание индексной карты (.CUE)

REM GENRE "Rock / Pop / Soft Rock / Pop Rock / Ballad"REM DATE 1989REM DISCID CA102A10REM COMMENT "ExactAudioCopy v1.3"PERFORMER "The Shadows"TITLE "Steppin' To The Shadows"REM COMPOSER "The Shadows"FILE "The Shadows - Steppin' To The Shadows.flac" WAVE  TRACK 01 AUDIO    TITLE "You Win Again"    PERFORMER "The Shadows"    REM COMPOSER "The Shadows"    FLAGS DCP    INDEX 01 00:00:00  TRACK 02 AUDIO    TITLE "I Wanna Dance With Somebody (Who Loves Me)"    PERFORMER "The Shadows"    REM COMPOSER "The Shadows"    FLAGS DCP    INDEX 00 03:53:14    INDEX 01 03:54:18  TRACK 03 AUDIO    TITLE "He Ain’t Heavy, He’s My Brother"    PERFORMER "The Shadows"    REM COMPOSER "The Shadows"    FLAGS DCP    INDEX 00 08:46:73    INDEX 01 08:48:36  TRACK 04 AUDIO    TITLE "Candle In The Wind"    PERFORMER "The Shadows"    REM COMPOSER "The Shadows"    FLAGS DCP    INDEX 00 13:17:25    INDEX 01 13:18:15  TRACK 05 AUDIO    TITLE "Farewell My Lovely"    PERFORMER "The Shadows"    REM COMPOSER "The Shadows"    FLAGS DCP    INDEX 00 17:06:03    INDEX 01 17:08:29  TRACK 06 AUDIO    TITLE "Mountains Of The Moon"    PERFORMER "The Shadows"    REM COMPOSER "The Shadows"    FLAGS DCP    INDEX 00 21:15:36    INDEX 01 21:16:65  TRACK 07 AUDIO    TITLE "Nothing’s Gonna Change My Love For You"    PERFORMER "The Shadows"    REM COMPOSER "The Shadows"    FLAGS DCP    INDEX 00 25:46:54    INDEX 01 25:48:23  TRACK 08 AUDIO    TITLE "Heaven Is A Place On Earth"    PERFORMER "The Shadows"    REM COMPOSER "The Shadows"    FLAGS DCP    INDEX 00 30:01:34    INDEX 01 30:02:64  TRACK 09 AUDIO    TITLE "When The Going Gets Tough"    PERFORMER "The Shadows"    REM COMPOSER "The Shadows"    FLAGS DCP    INDEX 00 34:02:42    INDEX 01 34:04:31  TRACK 10 AUDIO    TITLE "Alone"    PERFORMER "The Shadows"    REM COMPOSER "The Shadows"    FLAGS DCP    INDEX 00 38:28:60    INDEX 01 38:31:00  TRACK 11 AUDIO    TITLE "All I Ask Of You"    PERFORMER "The Shadows"    REM COMPOSER "The Shadows"    FLAGS DCP    INDEX 00 42:10:72    INDEX 01 42:13:07  TRACK 12 AUDIO    TITLE "Stack-It"    PERFORMER "The Shadows"    REM COMPOSER "The Shadows"    FLAGS DCP    INDEX 00 46:25:12    INDEX 01 46:27:06  TRACK 13 AUDIO    TITLE "Shoba"    PERFORMER "The Shadows"    REM COMPOSER "The Shadows"    FLAGS DCP    INDEX 00 51:30:74    INDEX 01 51:33:22  TRACK 14 AUDIO    TITLE "You Keep Me Hangin’ On"    PERFORMER "The Shadows"    REM COMPOSER "The Shadows"    FLAGS DCP    INDEX 01 56:10:23  TRACK 15 AUDIO    TITLE "Some People"    PERFORMER "The Shadows"    REM COMPOSER "The Shadows"    FLAGS DCP    INDEX 00 60:22:06    INDEX 01 60:23:32  TRACK 16 AUDIO    TITLE "One Moment In Time"    PERFORMER "The Shadows"    REM COMPOSER "The Shadows"    FLAGS DCP    INDEX 00 64:17:49    INDEX 01 64:18:29

Лог проверки качества

-----------------------
DON'T MODIFY THIS FILE
-----------------------
PERFORMER: auCDtect Task Manager, ver. 1.6.0 RC1 build 1.6.0.1Copyright (c) 2008-2010 y-soft. All rights reservedhttp://y-soft.org
ANALYZER: auCDtect: CD records authenticity detector, version 0.8.2Copyright (c) 2004 Oleg Berngardt. All rights reserved.Copyright (c) 2004 Alexander Djourik. All rights reserved.
FILE: The Shadows - Steppin' To The Shadows.wav Size: 730037324 Hash: B983422FF2EE917E6FD75ED4CC672D33 Accuracy: -m8 Conclusion: MPEG 95% Signature: 01642581FD781840D403127C90BF0BAA0D9B8260FILE: The Shadows - Steppin' To The Shadows.flac Size: 451703122 Hash: B983422FF2EE917E6FD75ED4CC672D33 Accuracy: -m8 Conclusion: MPEG 95% Signature: 24FD758AA1416C8A55A1D51CBC92CCE1CF1985FE

Back, Disc, Matrix, Spectrogram

1989 - At Their Very Best (00:52:35)

01. Apache
02. Man Of Mystery
03. Shindig
04. Wonderful Land
05. The Rise And Fall Of Flingel Bunt
06. The Theme From ’The Deerhunter’ (Cavatina)
07. The Boys
08. The Frightened City
09. Theme For Young Lovers
10. Dance On
11. The Savage
12. F.B.I.
13. Guitar Tango
14. Genie With The Light Brown Lamp
15. Atlantis
16. Foot Tapper
17. Don’t Cry For Me Argentina
18. Kon-Tiki
19. Geronimo
20. The Stranger

Лог создания рипа

Exact Audio Copy V1.3 from 2. September 2016
EAC extraction logfile from 13. November 2017, 17:17
The Shadows / At Their Very Best
Used drive : PLEXTOR BD-R PX-B950SA Adapter: 1 ID: 1
Read mode : SecureUtilize accurate stream : YesDefeat audio cache : YesMake use of C2 pointers : No
Read offset correction : 6Overread into Lead-In and Lead-Out : NoFill up missing offset samples with silence : YesDelete leading and trailing silent blocks : NoNull samples used in CRC calculations : YesUsed interface : Native Win32 interface for Win NT & 2000
Used output format : Internal WAV RoutinesSample format : 44.100 Hz; 16 Bit; Stereo
TOC of the extracted CD
Track | Start | Length | Start sector | End sector --------------------------------------------------------- 1 | 0:00.00 | 2:59.66 | 0 | 13490 2 | 2:59.66 | 2:00.05 | 13491 | 22495 3 | 4:59.71 | 2:18.03 | 22496 | 32848 4 | 7:17.74 | 2:16.61 | 32849 | 43109 5 | 9:34.60 | 2:45.72 | 43110 | 55556 6 | 12:20.57 | 3:26.08 | 55557 | 71014 7 | 15:46.65 | 2:38.60 | 71015 | 82924 8 | 18:25.50 | 2:34.07 | 82925 | 94481 9 | 20:59.57 | 2:37.31 | 94482 | 106287 10 | 23:37.13 | 2:22.46 | 106288 | 116983 11 | 25:59.59 | 2:24.08 | 116984 | 127791 12 | 28:23.67 | 2:23.68 | 127792 | 138584 13 | 30:47.60 | 2:57.69 | 138585 | 151928 14 | 33:45.54 | 2:43.40 | 151929 | 164193 15 | 36:29.19 | 2:48.14 | 164194 | 176807 16 | 39:17.33 | 2:33.25 | 176808 | 188307 17 | 41:50.58 | 3:20.40 | 188308 | 203347 18 | 45:11.23 | 1:54.24 | 203348 | 211921 19 | 47:05.47 | 2:19.03 | 211922 | 222349 20 | 49:24.50 | 3:10.22 | 222350 | 236621
Range status and errors
Selected range
Filename C:\Users\Alex\Desktop\Lossless Galaxy ALLexxess\The Shadows\2017 Boxing Shadows 1980-1990 (11CD Box Set Edsel Records)\1989 At Their Very Best\The Shadows - At Their Very Best.wav
Peak level 94.3 % Extraction speed 7.1 X Range quality 99.9 % Test CRC 6149AE6E Copy CRC 6149AE6E Copy OK
No errors occurred
AccurateRip summary
Track 1 not present in databaseTrack 2 not present in databaseTrack 3 not present in databaseTrack 4 not present in databaseTrack 5 not present in databaseTrack 6 not present in databaseTrack 7 not present in databaseTrack 8 not present in databaseTrack 9 not present in databaseTrack 10 not present in databaseTrack 11 not present in databaseTrack 12 not present in databaseTrack 13 not present in databaseTrack 14 not present in databaseTrack 15 not present in databaseTrack 16 not present in databaseTrack 17 not present in databaseTrack 18 not present in databaseTrack 19 not present in databaseTrack 20 not present in database
None of the tracks are present in the AccurateRip database
End of status report
---- CUETools DB Plugin V2.1.6
[CTDB TOCID: 9br40fSKKK0L9VxTuCqkt7Qzu.U-] disk not present in databaseSubmit result: 9br40fSKKK0L9VxTuCqkt7Qzu.U- has been uploaded
==== Log checksum CA2195B76F17BBF24E927E0CF43D8226EC15FEC8A61109E0EFB6F862E1298B92 ====

Содержание индексной карты (.CUE)

REM GENRE "Rock / Pop / Soft Rock / Pop Rock / Ballad"REM DATE 1989REM DISCID 130C5214REM COMMENT "ExactAudioCopy v1.3"PERFORMER "The Shadows"TITLE "At Their Very Best"REM COMPOSER "The Shadows"FILE "The Shadows - At Their Very Best.flac" WAVE  TRACK 01 AUDIO    TITLE "Apache"    PERFORMER "The Shadows"    REM COMPOSER "The Shadows"    FLAGS DCP    INDEX 01 00:00:00  TRACK 02 AUDIO    TITLE "Man Of Mystery"    PERFORMER "The Shadows"    REM COMPOSER "The Shadows"    FLAGS DCP    INDEX 00 02:58:24    INDEX 01 02:59:66  TRACK 03 AUDIO    TITLE "Shindig"    PERFORMER "The Shadows"    REM COMPOSER "The Shadows"    FLAGS DCP    INDEX 00 04:58:38    INDEX 01 04:59:71  TRACK 04 AUDIO    TITLE "Wonderful Land"    PERFORMER "The Shadows"    REM COMPOSER "The Shadows"    FLAGS DCP    INDEX 00 07:16:58    INDEX 01 07:17:74  TRACK 05 AUDIO    TITLE "The Rise And Fall Of Flingel Bunt"    PERFORMER "The Shadows"    REM COMPOSER "The Shadows"    FLAGS DCP    INDEX 00 09:33:37    INDEX 01 09:34:60  TRACK 06 AUDIO    TITLE "The Theme From 'The Deerhunter' (Cavatina)"    PERFORMER "The Shadows"    REM COMPOSER "The Shadows"    FLAGS DCP    INDEX 00 12:19:29    INDEX 01 12:20:57  TRACK 07 AUDIO    TITLE "The Boys"    PERFORMER "The Shadows"    REM COMPOSER "The Shadows"    FLAGS DCP    INDEX 00 15:45:27    INDEX 01 15:46:65  TRACK 08 AUDIO    TITLE "The Frightened City"    PERFORMER "The Shadows"    REM COMPOSER "The Shadows"    FLAGS DCP    INDEX 00 18:24:16    INDEX 01 18:25:50  TRACK 09 AUDIO    TITLE "Theme For Young Lovers"    PERFORMER "The Shadows"    REM COMPOSER "The Shadows"    FLAGS DCP    INDEX 00 20:57:51    INDEX 01 20:59:57  TRACK 10 AUDIO    TITLE "Dance On"    PERFORMER "The Shadows"    REM COMPOSER "The Shadows"    FLAGS DCP    INDEX 00 23:35:55    INDEX 01 23:37:13  TRACK 11 AUDIO    TITLE "The Savage"    PERFORMER "The Shadows"    REM COMPOSER "The Shadows"    FLAGS DCP    INDEX 00 25:58:37    INDEX 01 25:59:59  TRACK 12 AUDIO    TITLE "F.B.I."    PERFORMER "The Shadows"    REM COMPOSER "The Shadows"    FLAGS DCP    INDEX 00 28:22:29    INDEX 01 28:23:67  TRACK 13 AUDIO    TITLE "Guitar Tango"    PERFORMER "The Shadows"    REM COMPOSER "The Shadows"    FLAGS DCP    INDEX 00 30:46:14    INDEX 01 30:47:60  TRACK 14 AUDIO    TITLE "Genie With The Light Brown Lamp"    PERFORMER "The Shadows"    REM COMPOSER "The Shadows"    FLAGS DCP    INDEX 00 33:44:34    INDEX 01 33:45:54  TRACK 15 AUDIO    TITLE "Atlantis"    PERFORMER "The Shadows"    REM COMPOSER "The Shadows"    FLAGS DCP    INDEX 00 36:27:56    INDEX 01 36:29:19  TRACK 16 AUDIO    TITLE "Foot Tapper"    PERFORMER "The Shadows"    REM COMPOSER "The Shadows"    FLAGS DCP    INDEX 00 39:15:52    INDEX 01 39:17:33  TRACK 17 AUDIO    TITLE "Don't Cry For Me Argentina"    PERFORMER "The Shadows"    REM COMPOSER "The Shadows"    FLAGS DCP    INDEX 00 41:49:22    INDEX 01 41:50:58  TRACK 18 AUDIO    TITLE "Kon-Tiki"    PERFORMER "The Shadows"    REM COMPOSER "The Shadows"    FLAGS DCP    INDEX 00 45:09:40    INDEX 01 45:11:23  TRACK 19 AUDIO    TITLE "Geronimo"    PERFORMER "The Shadows"    REM COMPOSER "The Shadows"    FLAGS DCP    INDEX 00 47:04:33    INDEX 01 47:05:47  TRACK 20 AUDIO    TITLE "The Stranger"    PERFORMER "The Shadows"    REM COMPOSER "The Shadows"    FLAGS DCP    INDEX 00 49:23:00    INDEX 01 49:24:50

Лог проверки качества

-----------------------
DON'T MODIFY THIS FILE
-----------------------
PERFORMER: auCDtect Task Manager, ver. 1.6.0 RC1 build 1.6.0.1Copyright (c) 2008-2010 y-soft. All rights reservedhttp://y-soft.org
ANALYZER: auCDtect: CD records authenticity detector, version 0.8.2Copyright (c) 2004 Oleg Berngardt. All rights reserved.Copyright (c) 2004 Alexander Djourik. All rights reserved.
FILE: The Shadows - At Their Very Best.wav Size: 556534988 Hash: C8E8882D014D0D991878182E78EE407E Accuracy: -m8 Conclusion: CDDA 100% Signature: 8D7A8444C7B87C9A73EB53A75C27EAF01DCE3295FILE: The Shadows - At Their Very Best.flac Size: 341150478 Hash: C8E8882D014D0D991878182E78EE407E Accuracy: -m8 Conclusion: CDDA 100% Signature: 5615E074976C870A0854A023341A3C440281F423

Back, Disc, Matrix, Spectrogram

1990 - Reflection (00:58:38)

01. Eye Of The Tiger
02. Crockett’s Theme (From ’Miami Vice’)
03. Right Here Waiting
04. Every Little Thing She Does Is Magic
05. Sealed With A Kiss
06. Uptown Girl
07. Strawberry Fields Forever
08. Riders In The Sky ‘90
09. Flashdance...What A Feeling
10. Something’s Gotten Hold Of My Heart
11. Love Changes Everything
12. Nothing’s Gonna Stop Us Now
13. Bilitis
14. You’ll Never Walk Alone
15 .Shadowmix featuring Apache: Wonderful Land / The Rise And Fall Of Flingel Bunt
Kon-Tiki / F.B.I. / Man Of Mystery And Apache
16. Always On My Mind

Лог создания рипа

Exact Audio Copy V1.3 from 2. September 2016
EAC extraction logfile from 13. November 2017, 16:57
The Shadows / Reflection
Used drive : PLEXTOR BD-R PX-B950SA Adapter: 1 ID: 1
Read mode : SecureUtilize accurate stream : YesDefeat audio cache : YesMake use of C2 pointers : No
Read offset correction : 6Overread into Lead-In and Lead-Out : NoFill up missing offset samples with silence : YesDelete leading and trailing silent blocks : NoNull samples used in CRC calculations : YesUsed interface : Native Win32 interface for Win NT & 2000
Used output format : Internal WAV RoutinesSample format : 44.100 Hz; 16 Bit; Stereo
TOC of the extracted CD
Track | Start | Length | Start sector | End sector --------------------------------------------------------- 1 | 0:00.00 | 4:04.03 | 0 | 18302 2 | 4:04.03 | 3:46.07 | 18303 | 35259 3 | 7:50.10 | 4:05.62 | 35260 | 53696 4 | 11:55.72 | 3:33.36 | 53697 | 69707 5 | 15:29.33 | 2:33.62 | 69708 | 81244 6 | 18:03.20 | 3:15.74 | 81245 | 95943 7 | 21:19.19 | 4:08.61 | 95944 | 114604 8 | 25:28.05 | 3:28.66 | 114605 | 130270 9 | 28:56.71 | 3:54.29 | 130271 | 147849 10 | 32:51.25 | 4:38.16 | 147850 | 168715 11 | 37:29.41 | 3:25.60 | 168716 | 184150 12 | 40:55.26 | 4:19.60 | 184151 | 203635 13 | 45:15.11 | 3:18.31 | 203636 | 218516 14 | 48:33.42 | 3:04.70 | 218517 | 232386 15 | 51:38.37 | 3:28.60 | 232387 | 248046 16 | 55:07.22 | 3:31.14 | 248047 | 263885
Range status and errors
Selected range
Filename C:\Users\Alex\Desktop\Lossless Galaxy ALLexxess\The Shadows\2017 Boxing Shadows 1980-1990 (11CD Box Set Edsel Records)\1990 Reflection\The Shadows - Reflection.wav
Peak level 94.3 % Extraction speed 6.0 X Range quality 100.0 % Test CRC 434473D9 Copy CRC 434473D9 Copy OK
No errors occurred
AccurateRip summary
Track 1 not present in databaseTrack 2 not present in databaseTrack 3 not present in databaseTrack 4 not present in databaseTrack 5 not present in databaseTrack 6 not present in databaseTrack 7 not present in databaseTrack 8 not present in databaseTrack 9 not present in databaseTrack 10 not present in databaseTrack 11 not present in databaseTrack 12 not present in databaseTrack 13 not present in databaseTrack 14 not present in databaseTrack 15 not present in databaseTrack 16 not present in database
None of the tracks are present in the AccurateRip database
End of status report
---- CUETools DB Plugin V2.1.6
[CTDB TOCID: LH86dYfQROsSD3EFWybMQLUSW.U-] disk not present in databaseSubmit result: LH86dYfQROsSD3EFWybMQLUSW.U- has been uploaded
==== Log checksum A84F0C0CF1B4982981B35A8C16B4EB7790A231B5FE26118A5D46EEB97C0F630A ====

Содержание индексной карты (.CUE)

REM GENRE "Rock / Pop / Soft Rock / Pop Rock / Ballad"REM DATE 1990REM DISCID D20DBE10REM COMMENT "ExactAudioCopy v1.3"PERFORMER "The Shadows"TITLE "Reflection"REM COMPOSER "The Shadows"FILE "The Shadows - Reflection.flac" WAVE  TRACK 01 AUDIO    TITLE "Eye Of The Tiger"    PERFORMER "The Shadows"    REM COMPOSER "The Shadows"    FLAGS DCP    INDEX 01 00:00:00  TRACK 02 AUDIO    TITLE "Crockett's Theme (From 'Miami Vice')"    PERFORMER "The Shadows"    REM COMPOSER "The Shadows"    FLAGS DCP    INDEX 00 04:02:66    INDEX 01 04:04:03  TRACK 03 AUDIO    TITLE "Right Here Waiting"    PERFORMER "The Shadows"    REM COMPOSER "The Shadows"    FLAGS DCP    INDEX 00 07:48:70    INDEX 01 07:50:10  TRACK 04 AUDIO    TITLE "Every Little Thing She Does Is Magic"    PERFORMER "The Shadows"    REM COMPOSER "The Shadows"    FLAGS DCP    INDEX 00 11:55:13    INDEX 01 11:55:72  TRACK 05 AUDIO    TITLE "Sealed With A Kiss"    PERFORMER "The Shadows"    REM COMPOSER "The Shadows"    FLAGS DCP    INDEX 00 15:27:42    INDEX 01 15:29:33  TRACK 06 AUDIO    TITLE "Uptown Girl"    PERFORMER "The Shadows"    REM COMPOSER "The Shadows"    FLAGS DCP    INDEX 00 18:02:27    INDEX 01 18:03:20  TRACK 07 AUDIO    TITLE "Strawberry Fields Forever"    PERFORMER "The Shadows"    REM COMPOSER "The Shadows"    FLAGS DCP    INDEX 00 21:18:12    INDEX 01 21:19:19  TRACK 08 AUDIO    TITLE "Riders In The Sky '90"    PERFORMER "The Shadows"    REM COMPOSER "The Shadows"    FLAGS DCP    INDEX 00 25:26:47    INDEX 01 25:28:05  TRACK 09 AUDIO    TITLE "Flashdance...What A Feeling"    PERFORMER "The Shadows"    REM COMPOSER "The Shadows"    FLAGS DCP    INDEX 00 28:55:72    INDEX 01 28:56:71  TRACK 10 AUDIO    TITLE "Something's Gotten Hold Of My Heart"    PERFORMER "The Shadows"    REM COMPOSER "The Shadows"    FLAGS DCP    INDEX 00 32:50:22    INDEX 01 32:51:25  TRACK 11 AUDIO    TITLE "Love Changes Everything"    PERFORMER "The Shadows"    REM COMPOSER "The Shadows"    FLAGS DCP    INDEX 00 37:28:26    INDEX 01 37:29:41  TRACK 12 AUDIO    TITLE "Nothing's Gonna Stop Us Now"    PERFORMER "The Shadows"    REM COMPOSER "The Shadows"    FLAGS DCP    INDEX 00 40:54:20    INDEX 01 40:55:26  TRACK 13 AUDIO    TITLE "Bilitis"    PERFORMER "The Shadows"    REM COMPOSER "The Shadows"    FLAGS DCP    INDEX 00 45:13:48    INDEX 01 45:15:11  TRACK 14 AUDIO    TITLE "You'll Never Walk Alone"    PERFORMER "The Shadows"    REM COMPOSER "The Shadows"    FLAGS DCP    INDEX 00 48:32:00    INDEX 01 48:33:42  TRACK 15 AUDIO    TITLE "Shadowmix"    PERFORMER "The Shadows"    REM COMPOSER "The Shadows"    FLAGS DCP    INDEX 00 51:37:39    INDEX 01 51:38:37  TRACK 16 AUDIO    TITLE "Always On My Mind"    PERFORMER "The Shadows"    REM COMPOSER "The Shadows"    FLAGS DCP    INDEX 00 55:06:54    INDEX 01 55:07:22

Лог проверки качества

-----------------------
DON'T MODIFY THIS FILE
-----------------------
PERFORMER: auCDtect Task Manager, ver. 1.6.0 RC1 build 1.6.0.1Copyright (c) 2008-2010 y-soft. All rights reservedhttp://y-soft.org
ANALYZER: auCDtect: CD records authenticity detector, version 0.8.2Copyright (c) 2004 Oleg Berngardt. All rights reserved.Copyright (c) 2004 Alexander Djourik. All rights reserved.
FILE: The Shadows - Reflection.wav Size: 620659916 Hash: E8E7FB8C59A12A36E50ED69DFCF43BBE Accuracy: -m8 Conclusion: MPEG 95% Signature: 17167E1574938AD7CB9AD5D3AEB267A221D079FAFILE: The Shadows - Reflection.flac Size: 375420964 Hash: E8E7FB8C59A12A36E50ED69DFCF43BBE Accuracy: -m8 Conclusion: MPEG 95% Signature: F4F5E7852E5C17DB0267DA71D289E2FAD5256C87

Back, Disc, Matrix, Spectrogram

Доп. информация

Об издании


Performer:
The Shadows
Box / Albums:
2017 Boxing The Shadows 1980-1990
1980 Change Of Address; 1982 Hits Right Up Your Street
1982 Life In The Jungle; 1983 Live At Abbey Road; 1983 XXV
1984 Guardian Angel; 1986 Moonlight Shadows; 1987 Simply ... Shadows
1989 Steppin' To The Shadows; 1989 At Their Very Best; 1990 Reflection
(11CD Box Set Edsel Records)
Info:
Edsel Records
Amazon Exclusive Edition / Signed Edition 1000 Only
Catalog Box: SHADSBOX01X
Catalog Discs: SHADSBOX01CD1~CD11
Made in EU
Dynamic Range:
11 / 12 / 11 / 12 / 12 / 13 / 12 / 11 / 12 / 14 / 12
Released Year: 2017
http://www.amazon.co.uk/Boxing-Shadows-1980-1990-CDs-Exclusive/dp/B075KHY9K4
Вы не можете начинать темы
Вы не можете отвечать на сообщения
Вы не можете редактировать свои сообщения
Вы не можете удалять свои сообщения
Вы не можете голосовать в опросах
Вы не можете прикреплять файлы к сообщениям
Вы можете скачивать файлы
!ВНИМАНИЕ!

Сайт не предоставляет электронные версии произведений, а занимается лишь коллекционированием и каталогизацией ссылок, присылаемых и публикуемых на форуме нашими читателями. Если вы являетесь правообладателем какого-либо представленного материала и не желаете, чтобы ссылка на него находилась в нашем каталоге, свяжитесь с нами, и мы незамедлительно удалим ее. Файлы для обмена на трекере предоставлены пользователями сайта, и администрация не несет ответственности за их содержание. Просьба не заливать файлы, защищенные авторскими правами, а также файлы нелегального содержания!

Искали программы, игры, дополнения, музыка mp3, аниме, аудио книги, журналы? Добро пожаловать на свободный торрент трекер Torrents, у нас можно скачать бесплатно, без смс и регистрации и прочих ограничений лучшие, отборные сборки программ, игр. Скачать торрентом не составит труда даже не опытному пользователю. Раздачи ежедневно обновляются, только лучшие и качественные раздачи, подробные описания и скриншоты. Огромная коллекция программ для работы со звуком, графикой, дизайном, а так же множество плагинов и инструментов к ним с подробной инструкцией и рекомендациями. Прошивки для навигаторов, карты. Разнообразные игры, для Windows, Linux. В коллекцие есть и старые игры любых жанров, Rpg, Action, Shooter, strategy Множество дополнений, модификаций, сценариев для популярных игр в жанре экш, рпг, гонки, стратегии, логические игры. Множество аддонов и сценариев для Microsoft Flight Simulator Большая коллекция книг, учебников. Если нет возможности купить печатное издание - смело скачивайте цифровую версию книги или, быть может, журнала. Не любите читать - можно загрузить бесплатно аудикнигу. Для веб дизайнеров и программистов так же найдется множество специализированного софта, таких как: редакторы с подсветкой, среды программирования, компоненты, системы управления базами данных, разнообразные скрипты и шаблоны. Не так давно у нас появился материал для автолюбителей и владельцев мото - оригинальные и неоригинальные каталоги запчастей, книги и журналы по ремонту и обслуживанию, видеоуроки, статьи по чип тюнингу, прошивкам. Процедура получения контента элементарная, достаточно просто скачать торрент файл и добавить его в загрузку в вашем торрент клиенте. Если у вас нет специального торрент клиента, вы можете его скачать у нас.