(Neoclassic Instrumental Metal) Tony MacAlpine - Edge Of Insanity / Maximum Security (Japan) - 1985/1987, FLAC (image+.cue), lossless 

Цитировать
Tony MacAlpine - Edge Of Insanity / Maximum Security-Жанр: Neoclassic Instrumental Metal
Страна: США
Аудио кодек: FLAC
Тип рипов: image+.cue
Битрейт аудио: lossless
Рипы: ikebana
-
Альбомы:

Tony MacAlpine (1985) Edge Of Insanity [Japan, MP32-5106, 1986]

Tony MacAlpine - Edge Of Insanity- Год выхода альбома: 1985
Год выпуска диска: 1986
Производитель диска: Япония
Продолжительность: 41:23
Треклист:
01. Wheel Of Fortune (03:44)
02. The Stranger (03:59)
03. Quarter To Midnight (Live Solo) (02:25)
04. Agrionia (04:31)
05. Empire In The Sky (05:56)
06. The Witch And The Priest (03:33)
07. The Taker (03:22)
08. Chopin, Prelude 16, Opus 28 (01:21)
09. Edge Of Insanity (04:18)
10. The Raven (04:13)
11. No Place In Time (04:02)
Доп. информация:
Лейбл: SHRAPNEL/F.E.M.S.
Каталожный номер: MP32-5106
Матрица: MP32-5106-U1C 12 (JVC)
Состав:
Tony MacAlpine – electric guitar, keyboards, bass (8)
Billy Sheehan – bass
Steve Smith – drums

log

Exact Audio Copy V0.99 prebeta 5 from 4. May 2009
Отчёт EAC об извлечении, выполненном 20. октября 2010, 10:57
Tony MacAlpine / Edge Of Insanity [MP32-5106]
Дисковод: Optiarc DVD RW AD-7200A Adapter: 1 ID: 0
Режим чтения : ДостоверностьИспользование точного потока : ДаОтключение кэша аудио : ДаИспользование указателей C2 : Нет
Коррекция смещения при чтении : 48Способность читать области Lead-in и Lead-out : НетЗаполнение пропущенных сэмплов тишиной : ДаУдаление блоков с тишиной в начале и конце : НетПри вычислениях CRC использовались нулевые сэмплы : ДаИнтерфейс : Встроенный Win32-интерфейс для Win NT/2000
Выходной формат : Пользовательский кодировщикВыбранный битрейт : 128 kBit/sКачество : ВысокийДобавление ID3-тэга : НетУтилита сжатия : C:\Program Files\Exact Audio Copy\Flac\flac.exeДополнительные параметры : -8 -V -T "artist=%a" -T "title=%t" -T "album=%g" -T "date=%y" -T "tracknumber=%n" -T "genre=%m" -T "comment=EAC
TOC извлечённого CD
Трек | Старт | Длительность | Начальный сектор | Конечный сектор --------------------------------------------------------------------- 1 | 0:00.37 | 3:44.00 | 37 | 16836 2 | 3:44.37 | 3:59.13 | 16837 | 34774 3 | 7:43.50 | 2:24.40 | 34775 | 45614 4 | 10:08.15 | 4:30.42 | 45615 | 65906 5 | 14:38.57 | 5:55.38 | 65907 | 92569 6 | 20:34.20 | 3:33.32 | 92570 | 108576 7 | 24:07.52 | 3:22.08 | 108577 | 123734 8 | 27:29.60 | 1:20.50 | 123735 | 129784 9 | 28:50.35 | 4:18.05 | 129785 | 149139 10 | 33:08.40 | 4:12.45 | 149140 | 168084 11 | 37:21.10 | 4:01.72 | 168085 | 186231
Характеристики диапазона извлечения и сообщения об ошибках
Выбранный диапазон
Имя файла Y:\Музыка\Tony MacAlpine\1985 Edge Of Insanity\Tony MacAlpine - Edge Of Insanity [MP32-5106].wav
Пиковый уровень 88.5 % Качество диапазона 100.0 % CRC теста 0483F2C2 CRC копии 0483F2C2 Копирование... OK
Ошибок не произошло
AccurateRip: сводка
Трек 1 точность не определена (достоверность 1) [45EDDC7D], AccurateRip вернул [3FC27027]Трек 2 точность не определена (достоверность 1) [92E0A907], AccurateRip вернул [BDDF2D13]Трек 3 точность не определена (достоверность 1) [C353459A], AccurateRip вернул [D1AAF8A7]Трек 4 точность не определена (достоверность 1) [2EFF5C19], AccurateRip вернул [972A59A6]Трек 5 точность не определена (достоверность 1) [A75DB50E], AccurateRip вернул [3FC23C9B]Трек 6 точность не определена (достоверность 1) [5B502AD4], AccurateRip вернул [FA50AE9A]Трек 7 точность не определена (достоверность 1) [0E8B1C08], AccurateRip вернул [B876621B]Трек 8 точность не определена (достоверность 1) [78D6FC07], AccurateRip вернул [724E95E5]Трек 9 точность не определена (достоверность 1) [C19C06FF], AccurateRip вернул [C52DF84A]Трек 10 точность не определена (достоверность 1) [0D7A82F5], AccurateRip вернул [4A28970A]Трек 11 точность не определена (достоверность 1) [68087376], AccurateRip вернул [D51A073D]
Ни один трек не прошёл проверки на точностьВ вашей базе может быть иной вариант штамповки диска
Конец отчёта

cue

REM GENRE "Neo-Classical Metal"REM DATE 1985REM DISCID 8809B30BREM COMMENT "ExactAudioCopy v0.99pb5"PERFORMER "Tony MacAlpine"TITLE "Edge Of Insanity [MP32-5106]"FILE "Tony MacAlpine - Edge Of Insanity [MP32-5106].flac" WAVE  TRACK 01 AUDIO    TITLE "Wheel Of Fortune"    PERFORMER "Tony MacAlpine"    INDEX 00 00:00:00    INDEX 01 00:00:37  TRACK 02 AUDIO    TITLE "The Stranger"    PERFORMER "Tony MacAlpine"    INDEX 01 03:44:37  TRACK 03 AUDIO    TITLE "Quarter To Midnight (Live Solo)"    PERFORMER "Tony MacAlpine"    INDEX 00 07:42:49    INDEX 01 07:43:50  TRACK 04 AUDIO    TITLE "Agrionia"    PERFORMER "Tony MacAlpine"    INDEX 00 10:08:14    INDEX 01 10:08:15  TRACK 05 AUDIO    TITLE "Empire In The Sky"    PERFORMER "Tony MacAlpine"    INDEX 01 14:38:57  TRACK 06 AUDIO    TITLE "The Witch And The Priest"    PERFORMER "Tony MacAlpine"    INDEX 00 20:33:57    INDEX 01 20:34:20  TRACK 07 AUDIO    TITLE "The Taker"    PERFORMER "Tony MacAlpine"    INDEX 01 24:07:52  TRACK 08 AUDIO    TITLE "Chopin, Prelude 16, Opus 28"    PERFORMER "Tony MacAlpine"    INDEX 00 27:29:59    INDEX 01 27:29:60  TRACK 09 AUDIO    TITLE "Edge Of Insanity"    PERFORMER "Tony MacAlpine"    INDEX 00 28:50:34    INDEX 01 28:50:35  TRACK 10 AUDIO    TITLE "The Raven"    PERFORMER "Tony MacAlpine"    INDEX 00 33:08:39    INDEX 01 33:08:40  TRACK 11 AUDIO    TITLE "No Place In Time"    PERFORMER "Tony MacAlpine"    INDEX 00 37:21:09    INDEX 01 37:21:10

фото

Tony MacAlpine (1987) Maximum Security [Japan, 32PD-333, 1987]

Tony MacAlpine - Maximum Security- Год выхода альбома: 1987
Год выпуска диска: 1987
Производитель диска: Германия для Японии
Продолжительность: 38:59
Треклист:
01. Autumn Lords (03:26)
02. Hundreds Of Thousands (03:16)
03. Tears Of Sahara (03:47)
04. Key To The City (04:39)
05. The Time And The Test (02:39)
06. The King's Cup (03:28)
07. Sacred Wonder (04:13)
08. Etude #4 Opus #10 (Frédéric Chopin) (02:06)
09. The Vision (03:30)
10. Dreamstate (03:29)
11. Porcelain Doll (04:27)
Доп. информация:
Лейбл: POLYGRAM/NIPPON PHONOGRAM
Каталожный номер: 32PD-333
Матрица: 832 249-2 01 # AF (PHILIPS DUPONT OPTICAL)
Состав:
Tony MacAlpine – electric guitar, keyboard, bass
George Lynch – additional guitar solos (3, 9)
Jeff Watson – additional guitar solos (6)
Mike Mani – keyboard programming
Deen Castronovo – drums (1, 2, 3, 5, 6)
Atma Anur – drums (4, 7, 9, 10, 11)

log

Exact Audio Copy V0.99 prebeta 5 from 4. May 2009
Отчёт EAC об извлечении, выполненном 21. декабря 2010, 10:14
Tony MacAlpine / Maximum Security [32PD-333]
Дисковод: Optiarc DVD RW AD-7200A Adapter: 1 ID: 0
Режим чтения : ДостоверностьИспользование точного потока : ДаОтключение кэша аудио : ДаИспользование указателей C2 : Нет
Коррекция смещения при чтении : 48Способность читать области Lead-in и Lead-out : НетЗаполнение пропущенных сэмплов тишиной : ДаУдаление блоков с тишиной в начале и конце : НетПри вычислениях CRC использовались нулевые сэмплы : ДаИнтерфейс : Встроенный Win32-интерфейс для Win NT/2000
Выходной формат : Пользовательский кодировщикВыбранный битрейт : 128 kBit/sКачество : ВысокийДобавление ID3-тэга : НетУтилита сжатия : C:\Program Files\Exact Audio Copy\Flac\flac.exeДополнительные параметры : -8 -V -T "artist=%a" -T "title=%t" -T "album=%g" -T "date=%y" -T "tracknumber=%n" -T "genre=%m" -T "comment=EAC
TOC извлечённого CD
Трек | Старт | Длительность | Начальный сектор | Конечный сектор --------------------------------------------------------------------- 1 | 0:00.33 | 3:26.12 | 33 | 15494 2 | 3:26.45 | 3:15.50 | 15495 | 30169 3 | 6:42.20 | 3:46.50 | 30170 | 47169 4 | 10:28.70 | 4:38.55 | 47170 | 68074 5 | 15:07.50 | 2:39.35 | 68075 | 80034 6 | 17:47.10 | 3:27.48 | 80035 | 95607 7 | 21:14.58 | 4:13.00 | 95608 | 114582 8 | 25:27.58 | 2:05.62 | 114583 | 124019 9 | 27:33.45 | 3:30.05 | 124020 | 139774 10 | 31:03.50 | 3:28.65 | 139775 | 155439 11 | 34:32.40 | 4:26.43 | 155440 | 175432
Характеристики диапазона извлечения и сообщения об ошибках
Выбранный диапазон
Имя файла Y:\Музыка\Tony MacAlpine\1987 Maximum Security\Tony MacAlpine - Maximum Security [32PD-333].wav
Пиковый уровень 100.0 % Качество диапазона 100.0 % CRC теста 30B8BC0B CRC копии 30B8BC0B Копирование... OK
Ошибок не произошло
AccurateRip: сводка
Трек 1 точное извлечение (доверие 19) [6847911E]Трек 2 точное извлечение (доверие 19) [502D52B6]Трек 3 точное извлечение (доверие 19) [9C197791]Трек 4 точное извлечение (доверие 18) [7FC1B890]Трек 5 точное извлечение (доверие 19) [6BE77829]Трек 6 точное извлечение (доверие 19) [B21B01B9]Трек 7 точное извлечение (доверие 19) [0D5C1D3F]Трек 8 точное извлечение (доверие 19) [55361DDC]Трек 9 точное извлечение (доверие 18) [80F00591]Трек 10 точное извлечение (доверие 19) [39235762]Трек 11 точное извлечение (доверие 18) [B903E2CC]
Все треки извлечены точно
Конец отчёта

cue

REM GENRE "Neo-Classical Metal"REM DATE 1987REM DISCID 9209230BREM COMMENT "ExactAudioCopy v0.99pb5"PERFORMER "Tony MacAlpine"TITLE "Maximum Security [32PD-333]"FILE "Tony MacAlpine - Maximum Security [32PD-333].flac" WAVE  TRACK 01 AUDIO    TITLE "Autumn Lords"    PERFORMER "Tony MacAlpine"    INDEX 00 00:00:00    INDEX 01 00:00:33  TRACK 02 AUDIO    TITLE "Hundreds Of Thousands"    PERFORMER "Tony MacAlpine"    INDEX 00 03:23:33    INDEX 01 03:26:45  TRACK 03 AUDIO    TITLE "Tears Of Sahara"    PERFORMER "Tony MacAlpine"    INDEX 00 06:40:33    INDEX 01 06:42:20  TRACK 04 AUDIO    TITLE "Key To The City"    PERFORMER "Tony MacAlpine"    INDEX 00 10:28:45    INDEX 01 10:28:70  TRACK 05 AUDIO    TITLE "The Time And The Test"    PERFORMER "Tony MacAlpine"    INDEX 00 15:05:23    INDEX 01 15:07:50  TRACK 06 AUDIO    TITLE "The King's Cup"    PERFORMER "Tony MacAlpine"    INDEX 00 17:45:43    INDEX 01 17:47:10  TRACK 07 AUDIO    TITLE "Sacred Wonder"    PERFORMER "Tony MacAlpine"    INDEX 00 21:12:53    INDEX 01 21:14:58  TRACK 08 AUDIO    TITLE "Etude #4 Opus #10 (Frederic Chopin)"    PERFORMER "Tony MacAlpine"    INDEX 01 25:27:58  TRACK 09 AUDIO    TITLE "The Vision"    PERFORMER "Tony MacAlpine"    INDEX 01 27:33:45  TRACK 10 AUDIO    TITLE "Dreamstate"    PERFORMER "Tony MacAlpine"    INDEX 00 31:03:20    INDEX 01 31:03:50  TRACK 11 AUDIO    TITLE "Porcelain Doll"    PERFORMER "Tony MacAlpine"    INDEX 00 34:30:58    INDEX 01 34:32:40

фото

Вы не можете начинать темы
Вы не можете отвечать на сообщения
Вы не можете редактировать свои сообщения
Вы не можете удалять свои сообщения
Вы не можете голосовать в опросах
Вы не можете прикреплять файлы к сообщениям
Вы можете скачивать файлы
!ВНИМАНИЕ!

Сайт не предоставляет электронные версии произведений, а занимается лишь коллекционированием и каталогизацией ссылок, присылаемых и публикуемых на форуме нашими читателями. Если вы являетесь правообладателем какого-либо представленного материала и не желаете, чтобы ссылка на него находилась в нашем каталоге, свяжитесь с нами, и мы незамедлительно удалим ее. Файлы для обмена на трекере предоставлены пользователями сайта, и администрация не несет ответственности за их содержание. Просьба не заливать файлы, защищенные авторскими правами, а также файлы нелегального содержания!

Искали программы, игры, дополнения, музыка mp3, аниме, аудио книги, журналы? Добро пожаловать на свободный торрент трекер Torrents, у нас можно скачать бесплатно, без смс и регистрации и прочих ограничений лучшие, отборные сборки программ, игр. Скачать торрентом не составит труда даже не опытному пользователю. Раздачи ежедневно обновляются, только лучшие и качественные раздачи, подробные описания и скриншоты. Огромная коллекция программ для работы со звуком, графикой, дизайном, а так же множество плагинов и инструментов к ним с подробной инструкцией и рекомендациями. Прошивки для навигаторов, карты. Разнообразные игры, для Windows, Linux. В коллекцие есть и старые игры любых жанров, Rpg, Action, Shooter, strategy Множество дополнений, модификаций, сценариев для популярных игр в жанре экш, рпг, гонки, стратегии, логические игры. Множество аддонов и сценариев для Microsoft Flight Simulator Большая коллекция книг, учебников. Если нет возможности купить печатное издание - смело скачивайте цифровую версию книги или, быть может, журнала. Не любите читать - можно загрузить бесплатно аудикнигу. Для веб дизайнеров и программистов так же найдется множество специализированного софта, таких как: редакторы с подсветкой, среды программирования, компоненты, системы управления базами данных, разнообразные скрипты и шаблоны. Не так давно у нас появился материал для автолюбителей и владельцев мото - оригинальные и неоригинальные каталоги запчастей, книги и журналы по ремонту и обслуживанию, видеоуроки, статьи по чип тюнингу, прошивкам. Процедура получения контента элементарная, достаточно просто скачать торрент файл и добавить его в загрузку в вашем торрент клиенте. Если у вас нет специального торрент клиента, вы можете его скачать у нас.