(Instrumental Guitar Rock) Steve Vai - The Story of Light - 2012 [Deluxe Edition], FLAC (tracks+.cue), lossless 

Цитировать
Steve Vai / The Story of Light
Жанр: Instrumental Guitar Rock
Страна-производитель диска: USA
Год издания: 2012
Издатель (лейбл): Favored Nations
Номер по каталогу: FN2790-2
Страна: USA
Аудиокодек: FLAC (*.flac)
Тип рипа: tracks+.cue
Битрейт аудио: lossless
Продолжительность: 00:58:46
Источник (релизер):
Наличие сканов в содержимом раздачи:

Треклист

01. The Story Of Light02. Velorum03. John The Revelator04. The Book Of Seven Seals05. Creamsicle Sunset06. Gravity Storm07. Mullach A'tSi08. The Moon And I09. Weeping China Doll10. Racing The World11. No More Amsterdam12. Sunshine Electric Raindrops

Лог создания рипа

Exact Audio Copy V1.0 beta 3 from 29. August 2011
EAC extraction logfile from 14. August 2012, 13:57
Steve Vai / The Story of Light (Deluxe Edition)
Used drive : HL-DT-STDVDRAM GT40N Adapter: 1 ID: 1
Read mode : SecureUtilize accurate stream : YesDefeat audio cache : YesMake use of C2 pointers : No
Read offset correction : 103Overread into Lead-In and Lead-Out : NoFill up missing offset samples with silence : YesDelete leading and trailing silent blocks : NoNull samples used in CRC calculations : YesUsed interface : Native Win32 interface for Win NT & 2000Gap handling : Appended to previous track
Used output format : User Defined EncoderSelected bitrate : 1024 kBit/sQuality : HighAdd ID3 tag : NoCommand line compressor : C:\Program Files (x86)\Exact Audio Copy\Flac\flac.exeAdditional command line options : -8 -V -T "ARTIST=%artist%" -T "TITLE=%title%" -T "ALBUM=%albumtitle%" -T "DATE=%year%" -T "TRACKNUMBER=%tracknr%" -T "GENRE=%genre%" -T "PERFORMER=%albuminterpret%" -T "COMPOSER=%composer%" %haslyrics%--tag-from-file=LYRICS="%lyricsfile%"%haslyrics% -T "ALBUMARTIST=%albumartist%" -T "DISCNUMBER=%cdnumber%" -T "TOTALDISCS=%totalcds%" -T "TOTALTRACKS=%numtracks%" -T "COMMENT=%comment%" %source% -o %dest%
TOC of the extracted CD
Track | Start | Length | Start sector | End sector --------------------------------------------------------- 1 | 0:00.00 | 6:15.10 | 0 | 28134 2 | 6:15.10 | 6:09.28 | 28135 | 55837 3 | 12:24.38 | 3:40.05 | 55838 | 72342 4 | 16:04.43 | 3:55.74 | 72343 | 90041 5 | 20:00.42 | 3:30.26 | 90042 | 105817 6 | 23:30.68 | 5:33.06 | 105818 | 130798 7 | 29:03.74 | 3:56.53 | 130799 | 148551 8 | 33:00.52 | 7:17.73 | 148552 | 181399 9 | 40:18.50 | 6:11.30 | 181400 | 209254 10 | 46:30.05 | 3:45.07 | 209255 | 226136 11 | 50:15.12 | 4:15.54 | 226137 | 245315 12 | 54:30.66 | 4:15.45 | 245316 | 264485
Track 1
Filename C:\EAC\Steve Vai - The Story of Light (2012) [FLAC]\01 - The Story Of Light.wav
Pre-gap length 0:00:02.00
Peak level 100.0 % Extraction speed 1.2 X Track quality 99.9 % Test CRC F83E9454 Copy CRC F83E9454 Track not present in AccurateRip database Copy OK
Track 2
Filename C:\EAC\Steve Vai - The Story of Light (2012) [FLAC]\02 - Velorum.wav
Pre-gap length 0:00:01.00
Peak level 100.0 % Extraction speed 1.5 X Track quality 100.0 % Test CRC B97CEAD8 Copy CRC B97CEAD8 Track not present in AccurateRip database Copy OK
Track 3
Filename C:\EAC\Steve Vai - The Story of Light (2012) [FLAC]\03 - John The Revelator.wav
Pre-gap length 0:00:01.00
Peak level 100.0 % Extraction speed 1.4 X Track quality 99.9 % Test CRC 35A1C322 Copy CRC 35A1C322 Track not present in AccurateRip database Copy OK
Track 4
Filename C:\EAC\Steve Vai - The Story of Light (2012) [FLAC]\04 - Book of the Seven Seals.wav
Peak level 100.0 % Extraction speed 1.7 X Track quality 100.0 % Test CRC 9A9D3EE5 Copy CRC 9A9D3EE5 Track not present in AccurateRip database Copy OK
Track 5
Filename C:\EAC\Steve Vai - The Story of Light (2012) [FLAC]\05 - Creamsicle Sunset.wav
Pre-gap length 0:00:01.00
Peak level 99.8 % Extraction speed 1.8 X Track quality 100.0 % Test CRC 9A3EE59D Copy CRC 9A3EE59D Track not present in AccurateRip database Copy OK
Track 6
Filename C:\EAC\Steve Vai - The Story of Light (2012) [FLAC]\06 - Gravity Storm.wav
Pre-gap length 0:00:01.00
Peak level 100.0 % Extraction speed 2.0 X Track quality 100.0 % Test CRC F4A193D6 Copy CRC F4A193D6 Track not present in AccurateRip database Copy OK
Track 7
Filename C:\EAC\Steve Vai - The Story of Light (2012) [FLAC]\07 - Mullach a'tSi.wav
Pre-gap length 0:00:01.00
Peak level 100.0 % Extraction speed 1.8 X Track quality 99.9 % Test CRC 3115D464 Copy CRC 3115D464 Track not present in AccurateRip database Copy OK
Track 8
Filename C:\EAC\Steve Vai - The Story of Light (2012) [FLAC]\08 - The Moon and I.wav
Pre-gap length 0:00:01.00
Peak level 100.0 % Extraction speed 2.3 X Track quality 100.0 % Test CRC 41DF96C7 Copy CRC 41DF96C7 Track not present in AccurateRip database Copy OK
Track 9
Filename C:\EAC\Steve Vai - The Story of Light (2012) [FLAC]\09 - Weeping China Doll.wav
Pre-gap length 0:00:01.22
Peak level 100.0 % Extraction speed 2.4 X Track quality 100.0 % Test CRC 361A0F5B Copy CRC 361A0F5B Track not present in AccurateRip database Copy OK
Track 10
Filename C:\EAC\Steve Vai - The Story of Light (2012) [FLAC]\10 - Racing the World.wav
Pre-gap length 0:00:01.00
Peak level 100.0 % Extraction speed 2.1 X Track quality 99.9 % Test CRC C5FC4D2F Copy CRC C5FC4D2F Track not present in AccurateRip database Copy OK
Track 11
Filename C:\EAC\Steve Vai - The Story of Light (2012) [FLAC]\11 - No More Amsterdam.wav
Pre-gap length 0:00:01.00
Peak level 100.0 % Extraction speed 2.5 X Track quality 100.0 % Test CRC 2096A1C8 Copy CRC 2096A1C8 Track not present in AccurateRip database Copy OK
Track 12
Filename C:\EAC\Steve Vai - The Story of Light (2012) [FLAC]\12 - Sunshine Electric Raindrops.wav
Pre-gap length 0:00:01.00

Содержание индексной карты (.CUE)

REM GENRE RockREM DATE 2012REM DISCID A00DC60CREM COMMENT "ExactAudioCopy v1.0b3"PERFORMER "Steve Vai"TITLE "The Story of Light (Deluxe Edition)"FILE "01 - The Story Of Light.flac" WAVE  TRACK 01 AUDIO    TITLE "The Story Of Light"    PERFORMER "Steve Vai"    ISRC USFN11227801    INDEX 01 00:00:00  TRACK 02 AUDIO    TITLE "Velorum"    PERFORMER "Steve Vai"    ISRC USFN11227802    INDEX 00 06:14:10FILE "02 - Velorum.flac" WAVE    INDEX 01 00:00:00  TRACK 03 AUDIO    TITLE "John The Revelator"    PERFORMER "Steve Vai"    ISRC USFN11227803    INDEX 00 06:08:28FILE "03 - John The Revelator.flac" WAVE    INDEX 01 00:00:00FILE "04 - Book of the Seven Seals.flac" WAVE  TRACK 04 AUDIO    TITLE "Book of the Seven Seals"    PERFORMER "Steve Vai"    ISRC USFN11227804    INDEX 01 00:00:00  TRACK 05 AUDIO    TITLE "Creamsicle Sunset"    PERFORMER "Steve Vai"    ISRC USFN11227805    INDEX 00 03:54:74FILE "05 - Creamsicle Sunset.flac" WAVE    INDEX 01 00:00:00  TRACK 06 AUDIO    TITLE "Gravity Storm"    PERFORMER "Steve Vai"    ISRC USFN11227806    INDEX 00 03:29:26FILE "06 - Gravity Storm.flac" WAVE    INDEX 01 00:00:00  TRACK 07 AUDIO    TITLE "Mullach a'tSi"    PERFORMER "Steve Vai"    ISRC USFN11227807    INDEX 00 05:32:06FILE "07 - Mullach a'tSi.flac" WAVE    INDEX 01 00:00:00  TRACK 08 AUDIO    TITLE "The Moon and I"    PERFORMER "Steve Vai"    ISRC USFN11227808    INDEX 00 03:55:53FILE "08 - The Moon and I.flac" WAVE    INDEX 01 00:00:00  TRACK 09 AUDIO    TITLE "Weeping China Doll"    PERFORMER "Steve Vai"    ISRC USFN11227809    INDEX 00 07:16:56FILE "09 - Weeping China Doll.flac" WAVE    INDEX 01 00:00:00  TRACK 10 AUDIO    TITLE "Racing the World"    PERFORMER "Steve Vai"    ISRC USFN11227810    INDEX 00 06:10:30FILE "10 - Racing the World.flac" WAVE    INDEX 01 00:00:00  TRACK 11 AUDIO    TITLE "No More Amsterdam"    PERFORMER "Steve Vai"    ISRC USFN11227811    INDEX 00 03:44:07FILE "11 - No More Amsterdam.flac" WAVE    INDEX 01 00:00:00  TRACK 12 AUDIO    TITLE "Sunshine Electric Raindrops"    PERFORMER "Steve Vai"    ISRC USFN11227812    INDEX 00 04:14:54FILE "12 - Sunshine Electric Raindrops.flac" WAVE    INDEX 01 00:00:00

Лог проверки качества

-----------------------
DON'T MODIFY THIS FILE
-----------------------
PERFORMER: auCDtect Task Manager, ver. 1.5.1RC6 build 1.5.1.7Copyright (c) 2008-2010 y-soft. All rights reservedhttp://y-soft.org
ANALYZER: auCDtect: CD records authenticity detector, version 0.8.2Copyright (c) 2004 Oleg Berngardt. All rights reserved.Copyright (c) 2004 Alexander Djourik. All rights reserved.
FILE: 12 - Sunshine Electric Raindrops.flac Size: 34095435 Hash: 0107F17FD18B38185D67D86319204E6F Accuracy: -m0 Conclusion: CDDA 99% Signature: DE2123A2E69509B614AEE2A492B35068C77671C4FILE: 11 - No More Amsterdam.flac Size: 31159602 Hash: BF8E6AD820975E5511DD882DF970EF2C Accuracy: -m0 Conclusion: CDDA 100% Signature: E4AAE2B0A6250069491DE81E059061581DFF9518FILE: 10 - Racing the World.flac Size: 30588052 Hash: 7090FCB650FFD18CADF5307764AD02E6 Accuracy: -m0 Conclusion: CDDA 100% Signature: 11A3641FF74864B0C0DA53EB364FA07A40781C43FILE: 09 - Weeping China Doll.flac Size: 44333442 Hash: 32ABBE0C669B75841062583F6BF520CE Accuracy: -m0 Conclusion: CDDA 100% Signature: EECF1BE54E5A828A65523C8455A36A4F4DB96A38FILE: 08 - The Moon and I.flac Size: 55645717 Hash: E65FB17F1FEBB6EF1E78CD751BDA9793 Accuracy: -m0 Conclusion: CDDA 100% Signature: CF7001DC465BE91B20ACC89DFCFC92D8D953E3C6FILE: 07 - Mullach a'tSi.flac Size: 24056865 Hash: 9C23B4C19AF7428BE78B339AC1303800 Accuracy: -m0 Conclusion: CDDA 100% Signature: 513CD60532A97D29D32CC011EB66268632617AB9FILE: 06 - Gravity Storm.flac Size: 43966473 Hash: 71364EFA8EB7F69F612F484DE6FD936E Accuracy: -m0 Conclusion: CDDA 100% Signature: D9170467A17163374192D8E234378F1F79FEABE7FILE: 05 - Creamsicle Sunset.flac Size: 23262618 Hash: DFAC28A1DD328ACF082415571705ADF7 Accuracy: -m0 Conclusion: CDDA 100% Signature: 41A9B0F3BF66030A4E3F029182ABDCC4C0B80C5AFILE: 04 - Book of the Seven Seals.flac Size: 30515560 Hash: F6F1AB1ACB2DE7DB69362D19117A511C Accuracy: -m0 Conclusion: CDDA 100% Signature: 6788F17E0A3437FECF1725D67B61AD86D050AB35FILE: 03 - John the Revelator.flac Size: 28931731 Hash: FBF9A1BC58448E9CED91AD66518AFF3C Accuracy: -m0 Conclusion: CDDA 100% Signature: 8C27DB14E605C34C76CC94D908CD5AB8625AD0DDFILE: 02 - Velorum.flac Size: 48308090 Hash: 8203EF38764CA575804D96D97FCF48FF Accuracy: -m0 Conclusion: CDDA 100% Signature: B718BB3B6B4B29BE5BB7C222B816CBA81378752EFILE: 01 - The Story of Light.flac Size: 49763551 Hash: 6A311651554B338C10A8E5B605C90284 Accuracy: -m0 Conclusion: CDDA 100% Signature: 7504D8754EFC74C02684B22FDB369064DC62007E

Об исполнителе (группе)

Если кому-то не известно, то можно прочитать здесь http://ru.wikipedia.org/wiki/%D0%92%D0%B0%D0%B9,_%D0%A1%D1%82%D0%B8%D0%B2

Об альбоме (сборнике)

Rating 3.90 from 16 ratings with 1 "five stars" (15/08/12) according to rateyourmusic.com

Состав

Philip Bynoe - bass
Jeremy Colson - lead vocal on "John The Revelator"
Beverly McClellan - lead vocal on "John The Revelator" and backing vocal on "The Book Of Seven Seals"
Dave Rosenthal - piano on "The Story Of Light"
Julia Rainy May Vai - russian narration on "The Story Of Light"
Bob Carpenter - hammond B3 organ on "John The Revelator", "The Book Of Seven Seals" and "Sunshine Electric Raindrops"
Deborah Henson-Conant - harp on "Mullach A'tSi"
Mike Mangini - drums on "The Moon And I"
Mike Keneally - keyboards on "The Moon And I"
Dave Veiner - rhythm guitar on "The Moon And I"
Aimee Mann - vocals on "No More Amsterdam"
Steve Vai - guitar (везде, конечно)
Вы не можете начинать темы
Вы не можете отвечать на сообщения
Вы не можете редактировать свои сообщения
Вы не можете удалять свои сообщения
Вы не можете голосовать в опросах
Вы не можете прикреплять файлы к сообщениям
Вы можете скачивать файлы
!ВНИМАНИЕ!

Сайт не предоставляет электронные версии произведений, а занимается лишь коллекционированием и каталогизацией ссылок, присылаемых и публикуемых на форуме нашими читателями. Если вы являетесь правообладателем какого-либо представленного материала и не желаете, чтобы ссылка на него находилась в нашем каталоге, свяжитесь с нами, и мы незамедлительно удалим ее. Файлы для обмена на трекере предоставлены пользователями сайта, и администрация не несет ответственности за их содержание. Просьба не заливать файлы, защищенные авторскими правами, а также файлы нелегального содержания!

Искали программы, игры, дополнения, музыка mp3, аниме, аудио книги, журналы? Добро пожаловать на свободный торрент трекер Torrents, у нас можно скачать бесплатно, без смс и регистрации и прочих ограничений лучшие, отборные сборки программ, игр. Скачать торрентом не составит труда даже не опытному пользователю. Раздачи ежедневно обновляются, только лучшие и качественные раздачи, подробные описания и скриншоты. Огромная коллекция программ для работы со звуком, графикой, дизайном, а так же множество плагинов и инструментов к ним с подробной инструкцией и рекомендациями. Прошивки для навигаторов, карты. Разнообразные игры, для Windows, Linux. В коллекцие есть и старые игры любых жанров, Rpg, Action, Shooter, strategy Множество дополнений, модификаций, сценариев для популярных игр в жанре экш, рпг, гонки, стратегии, логические игры. Множество аддонов и сценариев для Microsoft Flight Simulator Большая коллекция книг, учебников. Если нет возможности купить печатное издание - смело скачивайте цифровую версию книги или, быть может, журнала. Не любите читать - можно загрузить бесплатно аудикнигу. Для веб дизайнеров и программистов так же найдется множество специализированного софта, таких как: редакторы с подсветкой, среды программирования, компоненты, системы управления базами данных, разнообразные скрипты и шаблоны. Не так давно у нас появился материал для автолюбителей и владельцев мото - оригинальные и неоригинальные каталоги запчастей, книги и журналы по ремонту и обслуживанию, видеоуроки, статьи по чип тюнингу, прошивкам. Процедура получения контента элементарная, достаточно просто скачать торрент файл и добавить его в загрузку в вашем торрент клиенте. Если у вас нет специального торрент клиента, вы можете его скачать у нас.