(Country Rock, Americana, Jazz, Blues) Chris Brokaw And Geoff Farina - The Angel\'s Message To Me - 2010, FLAC (tracks+.cue), lossless 

Цитировать
Chris Brokaw And Geoff Farina - The Angel's Message To Me
Жанр: Country Rock, Americana, Jazz, Blues
Страна-производитель диска: England
Год издания диска: 2010
Издатель (лейбл): Not On Label (Chris Brokaw And Geoff Farina Self-released)
Номер по каталогу: DAMNABLY003
Страна: USA
Аудиокодек: FLAC (*.flac)
Тип рипа: tracks+.cue
Битрейт аудио: lossless
Продолжительность: 40:01
Источник: What.cd
Наличие сканов в содержимом раздачи: нет
Треклист:
01. The Angel's Message To Me [3:05]
02. Ginseng Blues [3:38]
03. Guitar Chimes [2:43]
04. In The Evening [4:09]
05. Make Me A Pallet On Your Floor [3:15]
06. Oh Death [4:20]
07. Sitting On Top Of The World [2:45]
08. St. James Infirmary Blues [3:28]
09. Stagger Lee [2:57]
10. Poor Wayfaring Stranger [3:51]
11. That'll Never Happen No More [2:57]
12. Trouble In Mind [2:50]

Лог создания рипа

Exact Audio Copy V0.99 prebeta 5 from 4. May 2009
EAC extraction logfile from 21. March 2010, 17:37
Chris Brokaw and Geoff Farina / The Angel's Message To Me
Used drive : SONY CDRWDVD CRX880A Adapter: 1 ID: 0
Read mode : SecureUtilize accurate stream : YesDefeat audio cache : YesMake use of C2 pointers : No
Read offset correction : 0Overread into Lead-In and Lead-Out : NoFill up missing offset samples with silence : YesDelete leading and trailing silent blocks : NoNull samples used in CRC calculations : YesUsed interface : Native Win32 interface for Win NT & 2000Gap handling : Appended to previous track
Used output format : Internal WAV RoutinesSample format : 44.100 Hz; 16 Bit; Stereo
TOC of the extracted CD
Track | Start | Length | Start sector | End sector --------------------------------------------------------- 1 | 0:00.00 | 3:05.20 | 0 | 13894 2 | 3:05.20 | 3:38.33 | 13895 | 30277 3 | 6:43.53 | 2:43.17 | 30278 | 42519 4 | 9:26.70 | 4:09.20 | 42520 | 61214 5 | 13:36.15 | 3:15.33 | 61215 | 75872 6 | 16:51.48 | 4:20.17 | 75873 | 95389 7 | 21:11.65 | 2:45.00 | 95390 | 107764 8 | 23:56.65 | 3:28.01 | 107765 | 123365 9 | 27:24.66 | 2:57.01 | 123366 | 136641 10 | 30:21.67 | 3:51.02 | 136642 | 153968 11 | 34:12.69 | 2:57.35 | 153969 | 167278 12 | 37:10.29 | 2:50.20 | 167279 | 180048
Track 1
Filename C:\Documents and Settings\mosspits\My Documents\my music\Chris Brokaw and Geoff Farina\2010 - The Angel's Message To Me\01 - The Angels Message To Me.wav
Pre-gap length 0:00:02.00
Peak level 98.8 % Track quality 100.0 % Test CRC 8D755849 Copy CRC 8D755849 Copy OK
Track 2
Filename C:\Documents and Settings\mosspits\My Documents\my music\Chris Brokaw and Geoff Farina\2010 - The Angel's Message To Me\02 - Ginseng Blues.wav
Pre-gap length 0:00:02.16
Peak level 98.8 % Track quality 100.0 % Test CRC 59D78451 Copy CRC 59D78451 Copy OK
Track 3
Filename C:\Documents and Settings\mosspits\My Documents\my music\Chris Brokaw and Geoff Farina\2010 - The Angel's Message To Me\03 - Guitar Chimes.wav
Pre-gap length 0:00:02.71
Peak level 98.8 % Track quality 100.0 % Test CRC 59793C1D Copy CRC 59793C1D Copy OK
Track 4
Filename C:\Documents and Settings\mosspits\My Documents\my music\Chris Brokaw and Geoff Farina\2010 - The Angel's Message To Me\04 - In The Evening.wav
Pre-gap length 0:00:02.61
Peak level 98.8 % Track quality 100.0 % Test CRC 763A0F60 Copy CRC 763A0F60 Copy OK
Track 5
Filename C:\Documents and Settings\mosspits\My Documents\my music\Chris Brokaw and Geoff Farina\2010 - The Angel's Message To Me\05 - Make Me A Pallet On Your Floor.wav
Pre-gap length 0:00:02.72
Peak level 98.8 % Track quality 100.0 % Test CRC 9D6934F6 Copy CRC 9D6934F6 Copy OK
Track 6
Filename C:\Documents and Settings\mosspits\My Documents\my music\Chris Brokaw and Geoff Farina\2010 - The Angel's Message To Me\06 - Oh Death.wav
Pre-gap length 0:00:02.45
Peak level 98.8 % Track quality 100.0 % Test CRC 94C94F50 Copy CRC 94C94F50 Copy OK
Track 7
Filename C:\Documents and Settings\mosspits\My Documents\my music\Chris Brokaw and Geoff Farina\2010 - The Angel's Message To Me\07 - Sitting On Top Of The World.wav
Pre-gap length 0:00:03.12
Peak level 98.8 % Track quality 100.0 % Test CRC 21B3A6D8 Copy CRC 21B3A6D8 Copy OK
Track 8
Filename C:\Documents and Settings\mosspits\My Documents\my music\Chris Brokaw and Geoff Farina\2010 - The Angel's Message To Me\08 - St James Infirmary Blues.wav
Pre-gap length 0:00:01.74
Peak level 98.8 % Track quality 100.0 % Test CRC 7A969240 Copy CRC 7A969240 Copy OK
Track 9
Filename C:\Documents and Settings\mosspits\My Documents\my music\Chris Brokaw and Geoff Farina\2010 - The Angel's Message To Me\09 - Stagger Lee.wav
Pre-gap length 0:00:02.44
Peak level 98.8 % Track quality 99.9 % Test CRC 3D66DD57 Copy CRC 3D66DD57 Copy OK
Track 10
Filename C:\Documents and Settings\mosspits\My Documents\my music\Chris Brokaw and Geoff Farina\2010 - The Angel's Message To Me\10 - Poor Wayfaring Stranger.wav
Pre-gap length 0:00:01.01
Peak level 98.8 % Track quality 100.0 % Test CRC 1DAD3012 Copy CRC 1DAD3012 Copy OK
Track 11
Filename C:\Documents and Settings\mosspits\My Documents\my music\Chris Brokaw and Geoff Farina\2010 - The Angel's Message To Me\11 - That'll Never Happen No More.wav
Pre-gap length 0:00:02.45
Peak level 98.8 % Track quality 100.0 % Test CRC 753D892E Copy CRC 753D892E Copy OK
Track 12
Filename C:\Documents and Settings\mosspits\My Documents\my music\Chris Brokaw and Geoff Farina\2010 - The Angel's Message To Me\12 - Trouble In Mind.wav
Pre-gap length 0:00:04.03
Peak level 98.8 % Track quality 100.0 % Test CRC E647E6E6 Copy CRC E647E6E6 Copy OK
No errors occurred
End of status report

Содержание индексной карты (.CUE)

REM GENRE RockREM DATE 2010REM DISCID 9409600CREM COMMENT "ExactAudioCopy v0.99pb5"PERFORMER "Chris Brokaw and Geoff Farina"TITLE "The Angel's Message To Me"FILE "01 - The Angels Message To Me.wav" WAVE  TRACK 01 AUDIO    TITLE "The Angels Message To Me"    PERFORMER "Chris Brokaw and Geoff Farina"    INDEX 01 00:00:00  TRACK 02 AUDIO    TITLE "Ginseng Blues"    PERFORMER "Chris Brokaw and Geoff Farina"    INDEX 00 03:03:04FILE "02 - Ginseng Blues.wav" WAVE    INDEX 01 00:00:00  TRACK 03 AUDIO    TITLE "Guitar Chimes"    PERFORMER "Chris Brokaw and Geoff Farina"    INDEX 00 03:35:37FILE "03 - Guitar Chimes.wav" WAVE    INDEX 01 00:00:00  TRACK 04 AUDIO    TITLE "In The Evening"    PERFORMER "Chris Brokaw and Geoff Farina"    INDEX 00 02:40:31FILE "04 - In The Evening.wav" WAVE    INDEX 01 00:00:00  TRACK 05 AUDIO    TITLE "Make Me A Pallet On Your Floor"    PERFORMER "Chris Brokaw and Geoff Farina"    INDEX 00 04:06:23FILE "05 - Make Me A Pallet On Your Floor.wav" WAVE    INDEX 01 00:00:00  TRACK 06 AUDIO    TITLE "Oh Death"    PERFORMER "Chris Brokaw and Geoff Farina"    INDEX 00 03:12:63FILE "06 - Oh Death.wav" WAVE    INDEX 01 00:00:00  TRACK 07 AUDIO    TITLE "Sitting On Top Of The World"    PERFORMER "Chris Brokaw and Geoff Farina"    INDEX 00 04:17:05FILE "07 - Sitting On Top Of The World.wav" WAVE    INDEX 01 00:00:00  TRACK 08 AUDIO    TITLE "St James Infirmary Blues"    PERFORMER "Chris Brokaw and Geoff Farina"    INDEX 00 02:43:01FILE "08 - St James Infirmary Blues.wav" WAVE    INDEX 01 00:00:00  TRACK 09 AUDIO    TITLE "Stagger Lee"    PERFORMER "Chris Brokaw and Geoff Farina"    INDEX 00 03:25:32FILE "09 - Stagger Lee.wav" WAVE    INDEX 01 00:00:00  TRACK 10 AUDIO    TITLE "Poor Wayfaring Stranger"    PERFORMER "Chris Brokaw and Geoff Farina"    INDEX 00 02:56:00FILE "10 - Poor Wayfaring Stranger.wav" WAVE    INDEX 01 00:00:00  TRACK 11 AUDIO    TITLE "That'll Never Happen No More"    PERFORMER "Chris Brokaw and Geoff Farina"    INDEX 00 03:48:32FILE "11 - That'll Never Happen No More.wav" WAVE    INDEX 01 00:00:00  TRACK 12 AUDIO    TITLE "Trouble In Mind"    PERFORMER "Chris Brokaw and Geoff Farina"    INDEX 00 02:53:32FILE "12 - Trouble In Mind.wav" WAVE    INDEX 01 00:00:00
Вы не можете начинать темы
Вы не можете отвечать на сообщения
Вы не можете редактировать свои сообщения
Вы не можете удалять свои сообщения
Вы не можете голосовать в опросах
Вы не можете прикреплять файлы к сообщениям
Вы можете скачивать файлы
!ВНИМАНИЕ!

Сайт не предоставляет электронные версии произведений, а занимается лишь коллекционированием и каталогизацией ссылок, присылаемых и публикуемых на форуме нашими читателями. Если вы являетесь правообладателем какого-либо представленного материала и не желаете, чтобы ссылка на него находилась в нашем каталоге, свяжитесь с нами, и мы незамедлительно удалим ее. Файлы для обмена на трекере предоставлены пользователями сайта, и администрация не несет ответственности за их содержание. Просьба не заливать файлы, защищенные авторскими правами, а также файлы нелегального содержания!

Искали программы, игры, дополнения, музыка mp3, аниме, аудио книги, журналы? Добро пожаловать на свободный торрент трекер Torrents, у нас можно скачать бесплатно, без смс и регистрации и прочих ограничений лучшие, отборные сборки программ, игр. Скачать торрентом не составит труда даже не опытному пользователю. Раздачи ежедневно обновляются, только лучшие и качественные раздачи, подробные описания и скриншоты. Огромная коллекция программ для работы со звуком, графикой, дизайном, а так же множество плагинов и инструментов к ним с подробной инструкцией и рекомендациями. Прошивки для навигаторов, карты. Разнообразные игры, для Windows, Linux. В коллекцие есть и старые игры любых жанров, Rpg, Action, Shooter, strategy Множество дополнений, модификаций, сценариев для популярных игр в жанре экш, рпг, гонки, стратегии, логические игры. Множество аддонов и сценариев для Microsoft Flight Simulator Большая коллекция книг, учебников. Если нет возможности купить печатное издание - смело скачивайте цифровую версию книги или, быть может, журнала. Не любите читать - можно загрузить бесплатно аудикнигу. Для веб дизайнеров и программистов так же найдется множество специализированного софта, таких как: редакторы с подсветкой, среды программирования, компоненты, системы управления базами данных, разнообразные скрипты и шаблоны. Не так давно у нас появился материал для автолюбителей и владельцев мото - оригинальные и неоригинальные каталоги запчастей, книги и журналы по ремонту и обслуживанию, видеоуроки, статьи по чип тюнингу, прошивкам. Процедура получения контента элементарная, достаточно просто скачать торрент файл и добавить его в загрузку в вашем торрент клиенте. Если у вас нет специального торрент клиента, вы можете его скачать у нас.