(Surf/Instrumental Rock) [CD] The Shadows - The Best Of The Shadows (EU, One Day Music DAY2CD150) - 2012, FLAC (image+.cue), lossless 

Цитировать
The Shadows - The Best Of The Shadows- -Жанр: Surf/Instrumental Rock
Страна-производитель диска: EU
Год издания диска: 2012
Лейбл: One Day Music
Номер по каталогу: DAY2CD150
Страна исполнителя: UK
Аудио кодек: FLAC (*.flac)
Тип рипа: image+.cue
Битрейт аудио: lossless
Источник: dafnaplus
Наличие сканов в содержимом раздачи: да, dpi 600-

Disc 1


Продолжительность: 42:20
Трэклист:
01. Apache 2:56
02. Kon-Tiki 1:55
03. F.B.I. 2:21
04. The Frightened City 2:23
05. Shadoogie 2:25
06. Blue Star 2:46
07. Nivram 3:21
08. Baby My Heart (Vocal) 2:16
09. See You In My Drums 2:50
10. All My Sorrows (Vocal) 3:01
11. Stand Up And Say That 2:14
12. Gonzales 2:16
13. Find Me A Golden Street 2:49
14. Theme From A Filleted Place 2:23
15. That's My Desire (Vocal) 2:28
16. My Resistance Is Love 1:58
17. Sleep Walk 2:49
18. Big Boy 2:10

Лог EAC

Exact Audio Copy V1.2 from 12. August 2016
EAC extraction logfile from 6. September 2016, 19:22
The Shadows / The Best Of The Shadows (Disc 1) (DAY2CD150-1)
Used drive : PLEXTOR DVDR PX-891SA Adapter: 1 ID: 0
Read mode : SecureUtilize accurate stream : YesDefeat audio cache : YesMake use of C2 pointers : No
Read offset correction : 6Overread into Lead-In and Lead-Out : NoFill up missing offset samples with silence : YesDelete leading and trailing silent blocks : NoNull samples used in CRC calculations : YesUsed interface : Native Win32 interface for Win NT & 2000
Used output format : User Defined EncoderSelected bitrate : 128 kBit/sQuality : HighAdd ID3 tag : NoCommand line compressor : C:\Program Files (x86)\Exact Audio Copy\Flac\flac.exeAdditional command line options : -V -8 -T "Genre=%genre%" -T "Artist=%artist%" -T "Title=%title%" -T "Album=%albumtitle%" -T "Date=%year%" -T "Tracknumber=%tracknr%" -T "Comment=%comment%" %source%
TOC of the extracted CD
Track | Start | Length | Start sector | End sector --------------------------------------------------------- 1 | 0:00.00 | 2:56.35 | 0 | 13234 2 | 2:56.35 | 1:54.65 | 13235 | 21849 3 | 4:51.25 | 2:20.46 | 21850 | 32395 4 | 7:11.71 | 2:22.46 | 32396 | 43091 5 | 9:34.42 | 2:24.65 | 43092 | 53956 6 | 11:59.32 | 2:45.44 | 53957 | 66375 7 | 14:45.01 | 3:21.37 | 66376 | 81487 8 | 18:06.38 | 2:15.38 | 81488 | 91650 9 | 20:22.01 | 2:49.60 | 91651 | 104385 10 | 23:11.61 | 3:00.61 | 104386 | 117946 11 | 26:12.47 | 2:14.03 | 117947 | 127999 12 | 28:26.50 | 2:15.72 | 128000 | 138196 13 | 30:42.47 | 2:49.30 | 138197 | 150901 14 | 33:32.02 | 2:22.74 | 150902 | 161625 15 | 35:55.01 | 2:28.04 | 161626 | 172729 16 | 38:23.05 | 1:58.25 | 172730 | 181604 17 | 40:21.30 | 2:48.57 | 181605 | 194261 18 | 43:10.12 | 2:09.63 | 194262 | 203999
Range status and errors
Selected range
Filename H:\dafnaplus\Shadows\Disc 1\The Shadows - The Best Of The Shadows (Disc 1) (DAY2CD150-1).wav
Peak level 98.7 % Extraction speed 7.5 X Range quality 100.0 % Test CRC 85287D01 Copy CRC 85287D01 Copy OK
No errors occurred
AccurateRip summary
Track 1 accurately ripped (confidence 2) [9E514DF1] (AR v2)Track 2 accurately ripped (confidence 2) [1E8A4911] (AR v2)Track 3 accurately ripped (confidence 2) [8A58A6B9] (AR v2)Track 4 accurately ripped (confidence 2) [5389C562] (AR v2)Track 5 accurately ripped (confidence 2) [E8AF1A29] (AR v2)Track 6 accurately ripped (confidence 2) [0C6D81CE] (AR v2)Track 7 accurately ripped (confidence 2) [03574D0B] (AR v2)Track 8 accurately ripped (confidence 2) [D56AB141] (AR v2)Track 9 accurately ripped (confidence 2) [C52AA884] (AR v2)Track 10 accurately ripped (confidence 2) [5C9E87CC] (AR v2)Track 11 accurately ripped (confidence 2) [D0BD2548] (AR v2)Track 12 accurately ripped (confidence 2) [7CAC7829] (AR v2)Track 13 accurately ripped (confidence 2) [167EB05E] (AR v2)Track 14 accurately ripped (confidence 2) [77D8FFA0] (AR v2)Track 15 accurately ripped (confidence 2) [72ED1F76] (AR v2)Track 16 accurately ripped (confidence 2) [0A75A375] (AR v2)Track 17 accurately ripped (confidence 2) [EFAFCF1F] (AR v2)Track 18 accurately ripped (confidence 2) [FAF446AD] (AR v2)
All tracks accurately ripped
End of status report
---- CUETools DB Plugin V2.1.6
[CTDB TOCID: c97uuvBpP3v5rNC2CTHJG1A0gmc-] foundSubmit result: c97uuvBpP3v5rNC2CTHJG1A0gmc- has been confirmedTrack | CTDB Status 1 | (3/3) Accurately ripped 2 | (3/3) Accurately ripped 3 | (3/3) Accurately ripped 4 | (3/3) Accurately ripped 5 | (3/3) Accurately ripped 6 | (3/3) Accurately ripped 7 | (3/3) Accurately ripped 8 | (3/3) Accurately ripped 9 | (3/3) Accurately ripped 10 | (3/3) Accurately ripped 11 | (3/3) Accurately ripped 12 | (3/3) Accurately ripped 13 | (3/3) Accurately ripped 14 | (3/3) Accurately ripped 15 | (3/3) Accurately ripped 16 | (3/3) Accurately ripped 17 | (3/3) Accurately ripped 18 | (3/3) Accurately ripped
==== Log checksum 7A9DF1A5F55D6450A03C610A33FA4757A958B5B19C1DBEA4D28072404D11F546 ====

DR Log

foobar2000 1.3.16 / Dynamic Range Meter 1.1.1log date: 2018-05-12 23:27:33
--------------------------------------------------------------------------------Analyzed: The Shadows / The Best Of The Shadows (Disc 1) (DAY2CD150-1)--------------------------------------------------------------------------------
DR Peak RMS Duration Track--------------------------------------------------------------------------------DR10 -0.14 dB -12.10 dB 2:56 01-ApacheDR12 -0.14 dB -13.97 dB 1:55 02-Kon-TikiDR9 -0.13 dB -10.02 dB 2:21 03-F.B.I.DR10 -0.14 dB -12.20 dB 2:23 04-The Frightened CityDR9 -0.14 dB -10.55 dB 2:25 05-ShadoogieDR8 -0.14 dB -10.60 dB 2:46 06-Blue StarDR10 -0.14 dB -11.80 dB 3:21 07-NivramDR10 -0.14 dB -11.54 dB 2:16 08-Baby My Heart (Vocal)DR11 -0.11 dB -13.62 dB 2:50 09-See You In My DrumsDR11 -0.15 dB -13.44 dB 3:01 10-All My Sorrows (Vocal)DR9 -0.14 dB -10.39 dB 2:14 11-Stand Up And Say ThatDR9 -0.15 dB -11.35 dB 2:16 12-GonzalesDR10 -0.14 dB -11.63 dB 2:49 13-Find Me A Golden StreetDR9 -0.12 dB -10.57 dB 2:23 14-Theme From A Filleted PlaceDR10 -0.15 dB -12.00 dB 2:28 15-That's My Desire (Vocal)DR10 -0.14 dB -11.31 dB 1:58 16-My Resistance Is LoveDR9 -0.14 dB -11.36 dB 2:49 17-Sleep WalkDR10 -0.15 dB -11.47 dB 2:10 18-Big Boy--------------------------------------------------------------------------------
Number of tracks: 18Official DR value: DR10
Samplerate: 44100 HzChannels: 2Bits per sample: 16Bitrate: 804 kbpsCodec: FLAC================================================================================

Matrix

Disc 2


Продолжительность: 38:10
Трэклист:
01. Man Of Mystery 2:02
02. The Savage 2:24
03. Peace Pipe 2:13
04. 36-24-36 1:43
05. Back Home 2:43
06. Midnight 2:31
07. The Stranger 2:37
08. Quartermaster's Stores 2:23
09. Saturday Dance (Vocal) 1:44
10. Lonesome Fella (Vocal) 2:34
11. Bongo Blues 1:46
12. Chinchilla 1:58
13. Driftin' 2:34
14. Jet Black 2:29
15. Feelin' Fine (Vocal) 1:57
16. Don't Be A Fool (With Love) (Vocal) 2:08
17. Be-Bop-A-Lula (Live/Studio (Vocal) 2:23

Лог EAC

Exact Audio Copy V1.2 from 12. August 2016
EAC extraction logfile from 7. September 2016, 21:27
The Shadows / The Best Of The Shadows (Disc 2) (DAY2CD150-2)
Used drive : PLEXTOR DVDR PX-891SA Adapter: 1 ID: 0
Read mode : SecureUtilize accurate stream : YesDefeat audio cache : YesMake use of C2 pointers : No
Read offset correction : 6Overread into Lead-In and Lead-Out : NoFill up missing offset samples with silence : YesDelete leading and trailing silent blocks : NoNull samples used in CRC calculations : YesUsed interface : Native Win32 interface for Win NT & 2000
Used output format : User Defined EncoderSelected bitrate : 128 kBit/sQuality : HighAdd ID3 tag : NoCommand line compressor : C:\Program Files (x86)\Exact Audio Copy\Flac\flac.exeAdditional command line options : -V -8 -T "Genre=%genre%" -T "Artist=%artist%" -T "Title=%title%" -T "Album=%albumtitle%" -T "Date=%year%" -T "Tracknumber=%tracknr%" -T "Comment=%comment%" %source%
TOC of the extracted CD
Track | Start | Length | Start sector | End sector --------------------------------------------------------- 1 | 0:00.00 | 2:02.26 | 0 | 9175 2 | 2:02.26 | 2:24.01 | 9176 | 19976 3 | 4:26.27 | 2:13.10 | 19977 | 29961 4 | 6:39.37 | 1:42.58 | 29962 | 37669 5 | 8:22.20 | 2:42.54 | 37670 | 49873 6 | 11:04.74 | 2:31.30 | 49874 | 61228 7 | 13:36.29 | 2:37.00 | 61229 | 73003 8 | 16:13.29 | 2:23.36 | 73004 | 83764 9 | 18:36.65 | 1:44.04 | 83765 | 91568 10 | 20:20.69 | 2:34.02 | 91569 | 103120 11 | 22:54.71 | 1:45.72 | 103121 | 111067 12 | 24:40.68 | 1:57.62 | 111068 | 119904 13 | 26:38.55 | 2:34.19 | 119905 | 131473 14 | 29:12.74 | 2:29.25 | 131474 | 142673 15 | 31:42.24 | 1:57.18 | 142674 | 151466 16 | 33:39.42 | 2:07.45 | 151467 | 161036 17 | 35:47.12 | 2:23.00 | 161037 | 171761
Range status and errors
Selected range
Filename H:\dafnaplus\Shadows\Disc 2\The Shadows - The Best Of The Shadows (Disc 2) (DAY2CD150-2).wav
Peak level 98.8 % Extraction speed 7.3 X Range quality 99.9 % Test CRC 1A8C3E40 Copy CRC 1A8C3E40 Copy OK
No errors occurred
AccurateRip summary
Track 1 cannot be verified as accurate (confidence 2) [F9CF58EE], AccurateRip returned [115E61DD] (AR v2)Track 2 cannot be verified as accurate (confidence 2) [4C23DB93], AccurateRip returned [C106F436] (AR v2)Track 3 cannot be verified as accurate (confidence 2) [A1021AF7], AccurateRip returned [BEF9B5C2] (AR v2)Track 4 cannot be verified as accurate (confidence 2) [8DC3D091], AccurateRip returned [85B8D431] (AR v2)Track 5 cannot be verified as accurate (confidence 2) [E68B23C1], AccurateRip returned [667EF053] (AR v2)Track 6 cannot be verified as accurate (confidence 2) [14641D70], AccurateRip returned [1D47DD4B] (AR v2)Track 7 cannot be verified as accurate (confidence 2) [B6293472], AccurateRip returned [9BC654AF] (AR v2)Track 8 cannot be verified as accurate (confidence 2) [457C7C91], AccurateRip returned [E24DFA94] (AR v2)Track 9 cannot be verified as accurate (confidence 2) [C09065CF], AccurateRip returned [C922B49C] (AR v2)Track 10 cannot be verified as accurate (confidence 2) [06E9C8D1], AccurateRip returned [7DEDC1E9] (AR v2)Track 11 cannot be verified as accurate (confidence 2) [EA4078D5], AccurateRip returned [B6096817] (AR v2)Track 12 cannot be verified as accurate (confidence 2) [D691170C], AccurateRip returned [59D0453F] (AR v2)Track 13 cannot be verified as accurate (confidence 2) [E944B056], AccurateRip returned [8E12547D] (AR v2)Track 14 cannot be verified as accurate (confidence 2) [D3F5AA8E], AccurateRip returned [C2967D69] (AR v2)Track 15 cannot be verified as accurate (confidence 2) [CE706D49], AccurateRip returned [309590F2] (AR v2)Track 16 cannot be verified as accurate (confidence 2) [941C2F10], AccurateRip returned [A85E1BD5] (AR v2)Track 17 cannot be verified as accurate (confidence 2) [2F8529E9], AccurateRip returned [476993D0] (AR v2)
No tracks could be verified as accurateYou may have a different pressing from the one(s) in the database
End of status report
---- CUETools DB Plugin V2.1.6
[CTDB TOCID: R1sdCnGaLoVIwxA.ra0biNqroaM-] foundSubmit result: already submittedTrack | CTDB Status 1 | (4/4) Accurately ripped 2 | (4/4) Accurately ripped 3 | (4/4) Accurately ripped 4 | (4/4) Accurately ripped 5 | (4/4) Accurately ripped 6 | (4/4) Accurately ripped 7 | (4/4) Accurately ripped 8 | (4/4) Accurately ripped 9 | (4/4) Accurately ripped 10 | (4/4) Accurately ripped 11 | (4/4) Accurately ripped 12 | (4/4) Accurately ripped 13 | (4/4) Accurately ripped 14 | (4/4) Accurately ripped 15 | (4/4) Accurately ripped 16 | (4/4) Accurately ripped 17 | (4/4) Accurately ripped
==== Log checksum 77A339AEFA05D1D2082E4A6C3C9E2CFC2FAC67A26FC2ACE1849C405A45760000 ====

DR Log

foobar2000 1.3.16 / Dynamic Range Meter 1.1.1log date: 2018-05-12 23:27:53
--------------------------------------------------------------------------------Analyzed: The Shadows / The Best Of The Shadows (Disc 2) (DAY2CD150-2)--------------------------------------------------------------------------------
DR Peak RMS Duration Track--------------------------------------------------------------------------------DR9 -0.12 dB -11.12 dB 2:02 01-Man Of MysteryDR9 -0.14 dB -10.41 dB 2:24 02-The SavageDR9 -0.14 dB -10.94 dB 2:13 03-Peace PipeDR10 -0.10 dB -12.48 dB 1:43 04-36-24-36DR9 -0.14 dB -10.57 dB 2:43 05-Back HomeDR10 -0.14 dB -11.38 dB 2:31 06-MidnightDR10 -0.14 dB -11.06 dB 2:37 07-The StrangerDR8 -0.11 dB -9.88 dB 2:23 08-Quartermaster's StoresDR8 -0.14 dB -9.85 dB 1:44 09-Saturday Dance (Vocal)DR10 -0.10 dB -12.44 dB 2:34 10-Lonesome Fella (Vocal)DR8 -0.13 dB -10.29 dB 1:46 11-Bongo BluesDR9 -0.13 dB -11.80 dB 1:58 12-ChinchillaDR10 -0.14 dB -12.42 dB 2:34 13-Driftin'DR9 -0.13 dB -11.22 dB 2:29 14-Jet BlackDR8 -0.14 dB -9.93 dB 1:57 15-Feelin' Fine (Vocal)DR8 -0.11 dB -9.94 dB 2:08 16-Don't Be A Fool (With Love) (Vocal)DR10 -0.15 dB -11.34 dB 2:23 17-Be-Bop-A-Lula (Live/Studio (Vocal)--------------------------------------------------------------------------------
Number of tracks: 17Official DR value: DR9
Samplerate: 44100 HzChannels: 2Bits per sample: 16Bitrate: 709 kbpsCodec: FLAC================================================================================

Matrix

-
Вы не можете начинать темы
Вы не можете отвечать на сообщения
Вы не можете редактировать свои сообщения
Вы не можете удалять свои сообщения
Вы не можете голосовать в опросах
Вы не можете прикреплять файлы к сообщениям
Вы можете скачивать файлы
!ВНИМАНИЕ!

Сайт не предоставляет электронные версии произведений, а занимается лишь коллекционированием и каталогизацией ссылок, присылаемых и публикуемых на форуме нашими читателями. Если вы являетесь правообладателем какого-либо представленного материала и не желаете, чтобы ссылка на него находилась в нашем каталоге, свяжитесь с нами, и мы незамедлительно удалим ее. Файлы для обмена на трекере предоставлены пользователями сайта, и администрация не несет ответственности за их содержание. Просьба не заливать файлы, защищенные авторскими правами, а также файлы нелегального содержания!

Искали программы, игры, дополнения, музыка mp3, аниме, аудио книги, журналы? Добро пожаловать на свободный торрент трекер Torrents, у нас можно скачать бесплатно, без смс и регистрации и прочих ограничений лучшие, отборные сборки программ, игр. Скачать торрентом не составит труда даже не опытному пользователю. Раздачи ежедневно обновляются, только лучшие и качественные раздачи, подробные описания и скриншоты. Огромная коллекция программ для работы со звуком, графикой, дизайном, а так же множество плагинов и инструментов к ним с подробной инструкцией и рекомендациями. Прошивки для навигаторов, карты. Разнообразные игры, для Windows, Linux. В коллекцие есть и старые игры любых жанров, Rpg, Action, Shooter, strategy Множество дополнений, модификаций, сценариев для популярных игр в жанре экш, рпг, гонки, стратегии, логические игры. Множество аддонов и сценариев для Microsoft Flight Simulator Большая коллекция книг, учебников. Если нет возможности купить печатное издание - смело скачивайте цифровую версию книги или, быть может, журнала. Не любите читать - можно загрузить бесплатно аудикнигу. Для веб дизайнеров и программистов так же найдется множество специализированного софта, таких как: редакторы с подсветкой, среды программирования, компоненты, системы управления базами данных, разнообразные скрипты и шаблоны. Не так давно у нас появился материал для автолюбителей и владельцев мото - оригинальные и неоригинальные каталоги запчастей, книги и журналы по ремонту и обслуживанию, видеоуроки, статьи по чип тюнингу, прошивкам. Процедура получения контента элементарная, достаточно просто скачать торрент файл и добавить его в загрузку в вашем торрент клиенте. Если у вас нет специального торрент клиента, вы можете его скачать у нас.