(Instrumental Guitar Rock) [CD] Nick Johnston - Дискография (4 альбома) - 2011-2016, FLAC (tracks+.cue), lossless 

Цитировать
-Nick Johnston / Дискография- -...Nick плодотворно трудится над своим стилем в течение многих лет, и надо отдать должное, его манера игры интересна, узнаваема и технична. Nick любит создавать предысторию для каждого трека и пытается рассказать отдельную историю, используя музыку. Отлично слышно, что Nick профессионально контролирует звучание гитары, используя достаточно умеренный «перегруз» и чистое звучание. Это очень похоже на работу профессионального вокалиста, который не просто поет основную мелодию, а добавляет что-то личностное в вокал-партию...-
Жанр: Instrumental Guitar Rock
Носитель: CD
Год издания: 2011-2016
Страна исполнителя (группы): Canada
Аудиокодек: FLAC (*.flac)
Тип рипа: tracks+.cue
Битрейт аудио: lossless
Источник (релизер): darkpixel
Наличие сканов в содержимом раздачи: нет

2011 - Public Display of Infection [42:36]

Tracklist:
01. The Uncomfortable Relationship of Gawker and Gawkee (4:31)
02. Black Eye (5:20)
03. Public Display of Infection (4:23)
04. Bulletproof (3:26)
05. Wander (4:49)
06. Night of the Living Dance (2:33)
07. Devil's Dancing Shoes (3:49)
08. Blue Blood (4:17)
09. Moon Waltz (4:06)
10. Drive it Like it's Stolen (5:22)
Line-up / Musicians:
Bass – Matt King
Drums – Travis Orbin
Engineer – Brian Hewson
Guitar – Nick Johnston

Лог создания рипа

Exact Audio Copy V1.3 from 2. September 2016
EAC extraction logfile from 27. March 2017, 16:37
Nick Johnston / Public Display of Infection
Used drive : PIONEER BD-RW BDR-XD05 Adapter: 1 ID: 0
Read mode : SecureUtilize accurate stream : YesDefeat audio cache : YesMake use of C2 pointers : No
Read offset correction : 667Overread into Lead-In and Lead-Out : NoFill up missing offset samples with silence : YesDelete leading and trailing silent blocks : NoNull samples used in CRC calculations : YesUsed interface : Native Win32 interface for Win NT & 2000Gap handling : Appended to previous track
Used output format : User Defined EncoderSelected bitrate : 1024 kBit/sQuality : HighAdd ID3 tag : NoCommand line compressor : C:\Program Files (x86)\Exact Audio Copy\Flac\flac.exeAdditional command line options : -8 -e -p -V -T "ARTIST=%artist%" -T "TITLE=%title%" -T "ALBUM=%albumtitle%" -T "DATE=%year%" -T "TRACKNUMBER=%tracknr%" -T "GENRE=%genre%" -T "PERFORMER=%albuminterpret%" -T "COMPOSER=%composer%" %haslyrics%--tag-from-file=LYRICS="%lyricsfile%"%haslyrics% -T "ALBUMARTIST=%albumartist%" -T "DISCNUMBER=%cdnumber%" -T "TOTALDISCS=%totalcds%" -T "TOTALTRACKS=%numtracks%" -T "COMMENT=%comment%" %source% -o %dest%
TOC of the extracted CD
Track | Start | Length | Start sector | End sector --------------------------------------------------------- 1 | 0:00.00 | 4:31.62 | 0 | 20386 2 | 4:31.62 | 5:19.39 | 20387 | 44350 3 | 9:51.26 | 4:23.12 | 44351 | 64087 4 | 14:14.38 | 3:25.53 | 64088 | 79515 5 | 17:40.16 | 4:49.08 | 79516 | 101198 6 | 22:29.24 | 2:32.69 | 101199 | 112667 7 | 25:02.18 | 3:48.61 | 112668 | 129828 8 | 28:51.04 | 4:16.46 | 129829 | 149074 9 | 33:07.50 | 4:06.09 | 149075 | 167533 10 | 37:13.59 | 5:23.07 | 167534 | 191765
Track 1
Filename C:\_exa\_eac_rips\Nick Johnston - Public Display of Infection (2011) [FLAC]\01 - The Uncomfortable Relationship of Gawker and Gawkee.wav
Pre-gap length 0:00:02.00
Peak level 98.9 % Extraction speed 2.8 X Track quality 100.0 % Test CRC 0F2EAC6C Copy CRC 0F2EAC6C Accurately ripped (confidence 1) [1B387B64] (AR v2) Copy OK
Track 2
Filename C:\_exa\_eac_rips\Nick Johnston - Public Display of Infection (2011) [FLAC]\02 - Black Eye.wav
Peak level 98.9 % Extraction speed 3.2 X Track quality 100.0 % Test CRC 27801F2C Copy CRC 27801F2C Accurately ripped (confidence 1) [D6938393] (AR v2) Copy OK
Track 3
Filename C:\_exa\_eac_rips\Nick Johnston - Public Display of Infection (2011) [FLAC]\03 - Public Display of Infection.wav
Peak level 98.9 % Extraction speed 3.5 X Track quality 100.0 % Test CRC 92C84276 Copy CRC 92C84276 Accurately ripped (confidence 1) [121AF926] (AR v2) Copy OK
Track 4
Filename C:\_exa\_eac_rips\Nick Johnston - Public Display of Infection (2011) [FLAC]\04 - Bulletproof.wav
Peak level 98.9 % Extraction speed 3.6 X Track quality 100.0 % Test CRC B82E4ED5 Copy CRC B82E4ED5 Accurately ripped (confidence 1) [3B8EAE52] (AR v2) Copy OK
Track 5
Filename C:\_exa\_eac_rips\Nick Johnston - Public Display of Infection (2011) [FLAC]\05 - Wander.wav
Peak level 98.9 % Extraction speed 4.0 X Track quality 100.0 % Test CRC BBCAA621 Copy CRC BBCAA621 Accurately ripped (confidence 1) [27C64454] (AR v2) Copy OK
Track 6
Filename C:\_exa\_eac_rips\Nick Johnston - Public Display of Infection (2011) [FLAC]\06 - Night of the living Dance.wav
Peak level 98.9 % Extraction speed 3.8 X Track quality 100.0 % Test CRC 287EB51E Copy CRC 287EB51E Accurately ripped (confidence 1) [D4F87105] (AR v2) Copy OK
Track 7
Filename C:\_exa\_eac_rips\Nick Johnston - Public Display of Infection (2011) [FLAC]\07 - Devil's Dancing Shoes.wav
Peak level 98.9 % Extraction speed 4.2 X Track quality 100.0 % Test CRC CEF6212C Copy CRC CEF6212C Accurately ripped (confidence 1) [59D2898B] (AR v2) Copy OK
Track 8
Filename C:\_exa\_eac_rips\Nick Johnston - Public Display of Infection (2011) [FLAC]\08 - Blue Blood.wav
Peak level 98.9 % Extraction speed 3.9 X Track quality 99.9 % Test CRC 7A9909C1 Copy CRC 7A9909C1 Accurately ripped (confidence 1) [A5647C28] (AR v2) Copy OK
Track 9
Filename C:\_exa\_eac_rips\Nick Johnston - Public Display of Infection (2011) [FLAC]\09 - Moon Waltz.wav
Peak level 98.9 % Extraction speed 4.6 X Track quality 100.0 % Test CRC A80DA626 Copy CRC A80DA626 Accurately ripped (confidence 1) [8618327C] (AR v2) Copy OK
Track 10
Filename C:\_exa\_eac_rips\Nick Johnston - Public Display of Infection (2011) [FLAC]\10 - Drive it like it's stolen.wav
Peak level 98.9 % Extraction speed 4.9 X Track quality 100.0 % Test CRC C371B6D4 Copy CRC C371B6D4 Accurately ripped (confidence 1) [D2507230] (AR v2) Copy OK
All tracks accurately ripped
No errors occurred
End of status report
---- CUETools DB Plugin V2.1.6
[CTDB TOCID: fypPSGCq3zdi.j53tn2r2pIbGSY-] foundSubmit result: fypPSGCq3zdi.j53tn2r2pIbGSY- has been confirmedTrack | CTDB Status 1 | (2/2) Accurately ripped 2 | (2/2) Accurately ripped 3 | (2/2) Accurately ripped 4 | (2/2) Accurately ripped 5 | (2/2) Accurately ripped 6 | (2/2) Accurately ripped 7 | (2/2) Accurately ripped 8 | (2/2) Accurately ripped 9 | (2/2) Accurately ripped 10 | (2/2) Accurately ripped
==== Log checksum F51561FDFCB902017C71FBDE0BC3AE2511426CC7E5A0985D5FBA7D08DBED7047 ====

Содержание индексной карты (.CUE)

REM GENRE "Instrumental Rock"REM DATE 2011REM DISCID 8409FC0AREM COMMENT "ExactAudioCopy v1.3"PERFORMER "Nick Johnston"TITLE "Public Display of Infection"REM COMPOSER ""FILE "01 - The Uncomfortable Relationship of Gawker and Gawkee.wav" WAVE  TRACK 01 AUDIO    TITLE "The Uncomfortable Relationship of Gawker and Gawkee"    PERFORMER "Nick Johnston"    REM COMPOSER ""    ISRC CA5TL1100001    INDEX 01 00:00:00FILE "02 - Black Eye.wav" WAVE  TRACK 02 AUDIO    TITLE "Black Eye"    PERFORMER "Nick Johnston"    REM COMPOSER ""    ISRC CA5TL1100002    INDEX 01 00:00:00FILE "03 - Public Display of Infection.wav" WAVE  TRACK 03 AUDIO    TITLE "Public Display of Infection"    PERFORMER "Nick Johnston"    REM COMPOSER ""    ISRC CA5TL1100003    INDEX 01 00:00:00FILE "04 - Bulletproof.wav" WAVE  TRACK 04 AUDIO    TITLE "Bulletproof"    PERFORMER "Nick Johnston"    REM COMPOSER ""    ISRC CA5TL1100004    INDEX 01 00:00:00FILE "05 - Wander.wav" WAVE  TRACK 05 AUDIO    TITLE "Wander"    PERFORMER "Nick Johnston"    REM COMPOSER ""    ISRC CA5TL1100005    INDEX 01 00:00:00FILE "06 - Night of the living Dance.wav" WAVE  TRACK 06 AUDIO    TITLE "Night of the living Dance"    PERFORMER "Nick Johnston"    REM COMPOSER ""    ISRC CA5TL1100006    INDEX 01 00:00:00FILE "07 - Devil's Dancing Shoes.wav" WAVE  TRACK 07 AUDIO    TITLE "Devil's Dancing Shoes"    PERFORMER "Nick Johnston"    REM COMPOSER ""    ISRC CA5TL1100007    INDEX 01 00:00:00FILE "08 - Blue Blood.wav" WAVE  TRACK 08 AUDIO    TITLE "Blue Blood"    PERFORMER "Nick Johnston"    REM COMPOSER ""    ISRC CA5TL1100008    INDEX 01 00:00:00FILE "09 - Moon Waltz.wav" WAVE  TRACK 09 AUDIO    TITLE "Moon Waltz"    PERFORMER "Nick Johnston"    REM COMPOSER ""    ISRC CA5TL1100009    INDEX 01 00:00:00FILE "10 - Drive it like it's stolen.wav" WAVE  TRACK 10 AUDIO    TITLE "Drive it like it's stolen"    PERFORMER "Nick Johnston"    REM COMPOSER ""    ISRC CA5TL1100010    INDEX 01 00:00:00

Лог проверки качества

-----------------------
DON'T MODIFY THIS FILE
-----------------------
PERFORMER: auCDtect Task Manager, ver. 1.6.0 RC1 build 1.6.0.1Copyright (c) 2008-2010 y-soft. All rights reservedhttp://y-soft.org
ANALYZER: auCDtect: CD records authenticity detector, version 0.8.2Copyright (c) 2004 Oleg Berngardt. All rights reserved.Copyright (c) 2004 Alexander Djourik. All rights reserved.
FILE: 10 - Drive it like it's stolen.flac Size: 44394588 Hash: 0839A457C01C7ADBCBBFD1AF52B92AB7 Accuracy: -m0 Conclusion: CDDA 100% Signature: 1F21FC3AA0E380F3E6AAA9F2D3ACA413DEC39998FILE: 09 - Moon Waltz.flac Size: 33516667 Hash: 05C6E508066DDDA57BDF8FC6BFA96D9A Accuracy: -m0 Conclusion: CDDA 100% Signature: 0864D1F308DD39D287ED97C47ABD2231A8BEBCCAFILE: 08 - Blue Blood.flac Size: 33998504 Hash: C1388E8C549B8315A546B9F309558145 Accuracy: -m0 Conclusion: CDDA 100% Signature: A32ACA5275D3450684337287531DC3B962B4D98FFILE: 07 - Devil's Dancing Shoes.flac Size: 30751056 Hash: BB64C0AA34E07E8EAAF08A7461D2CD3B Accuracy: -m0 Conclusion: CDDA 100% Signature: 22BD2D8ADA0DEE10B8FC5C42A3D188163D852E92FILE: 06 - Night of the living Dance.flac Size: 20374114 Hash: A7303E36E8F324B62DDB8AD54D47C226 Accuracy: -m0 Conclusion: CDDA 100% Signature: 68D0BB9EF42AFC98E0304BE5CA37C92C6FFFE4A3FILE: 05 - Wander.flac Size: 38569066 Hash: 8842243E47399AADFA48CB01D1109AF5 Accuracy: -m0 Conclusion: CDDA 100% Signature: 3EF104109AB27135CAC4BD3607B81421509CB5D1FILE: 04 - Bulletproof.flac Size: 26512379 Hash: F856F5B1ABB7E1C221AD8A50A296A0A4 Accuracy: -m0 Conclusion: CDDA 100% Signature: 3163689C262FC4A48720A9A52025CBA8B776AC38FILE: 03 - Public Display of Infection.flac Size: 34740689 Hash: 1C52FF07535BBBB32C8CA7A3E961A983 Accuracy: -m0 Conclusion: CDDA 100% Signature: 5EB19D9234B0F6152E789CEAD0488D1190BB2111FILE: 02 - Black Eye.flac Size: 42499842 Hash: 16F15EC51F693F13C8388C50F1AF1CC7 Accuracy: -m0 Conclusion: CDDA 100% Signature: 583C8FE8C81BCD0D8699ADAD77199794052568A0FILE: 01 - The Uncomfortable Relationship of Gawker and Gawkee.flac Size: 37412888 Hash: 8389299FB3DC99E715CEEA37B10301A0 Accuracy: -m0 Conclusion: CDDA 100% Signature: 4DEEAE4A56458F4FA680218FAEFB6F4113DC049F

Лог CUETools

[CUETools log; Date: 25.06.2018 20:15:50; Version: 2.1.5][CTDB TOCID: fypPSGCq3zdi.j53tn2r2pIbGSY-] found.Track | CTDB Status  1   | (11/11) Accurately ripped  2   | (11/11) Accurately ripped  3   | (11/11) Accurately ripped  4   | (11/11) Accurately ripped  5   | (11/11) Accurately ripped  6   | (11/11) Accurately ripped  7   | (11/11) Accurately ripped  8   | (11/11) Accurately ripped  9   | (11/11) Accurately ripped 10   | (11/11) Accurately ripped[AccurateRip ID: 00102e3d-0080005f-8409fc0a] found.Track   [  CRC   |   V2   ] Status 01     [db986c66|1b387b64] (0+2/2) Accurately ripped 02     [6f0316dc|d6938393] (0+2/2) Accurately ripped 03     [189cabb1|121af926] (0+2/2) Accurately ripped 04     [c766e527|3b8eae52] (0+2/2) Accurately ripped 05     [3eb77c76|27c64454] (0+2/2) Accurately ripped 06     [af194b4a|d4f87105] (0+2/2) Accurately ripped 07     [1009ae0f|59d2898b] (0+2/2) Accurately ripped 08     [34441cc5|a5647c28] (0+2/2) Accurately ripped 09     [2ab1eaaf|8618327c] (0+2/2) Accurately ripped 10     [e4a3cd4d|d2507230] (0+2/2) Accurately ripped
Track Peak [ CRC32 ] [W/O NULL] [ LOG ] -- 98,9 [CB857CCE] [AA45D399] 01 98,9 [0F2EAC6C] [A49566D2] CRC32 02 98,9 [27801F2C] [BF1064F6] CRC32 03 98,9 [92C84276] [188CDE07] CRC32 04 98,9 [B82E4ED5] [57CE63D8] CRC32 05 98,9 [BBCAA621] [E146E80E] CRC32 06 98,9 [287EB51E] [07784EB3] CRC32 07 98,9 [CEF6212C] [8A75B344] CRC32 08 98,9 [7A9909C1] [757481BB] CRC32 09 98,9 [A80DA626] [592A0F49] CRC32 10 98,9 [C371B6D4] [CF870847] CRC32

Лог DRM

foobar2000 1.3.9 / Dynamic Range Meter 1.1.1log date: 2018-06-25 20:24:02
--------------------------------------------------------------------------------Analyzed: Nick Johnston / Public Display of Infection--------------------------------------------------------------------------------
DR Peak RMS Duration Track--------------------------------------------------------------------------------DR6 -0.10 dB -6.76 dB 4:32 01-The Uncomfortable Relationship of Gawker and GawkeeDR6 -0.10 dB -6.76 dB 5:20 02-Black EyeDR6 -0.10 dB -6.76 dB 4:23 03-Public Display of InfectionDR6 -0.10 dB -6.81 dB 3:26 04-BulletproofDR6 -0.10 dB -6.67 dB 4:49 05-WanderDR6 -0.10 dB -6.27 dB 2:33 06-Night of the living DanceDR6 -0.10 dB -6.53 dB 3:49 07-Devil's Dancing ShoesDR6 -0.10 dB -6.40 dB 4:17 08-Blue BloodDR6 -0.10 dB -6.27 dB 4:06 09-Moon WaltzDR6 -0.10 dB -6.59 dB 5:23 10-Drive it like it's stolen--------------------------------------------------------------------------------
Number of tracks: 10Official DR value: DR6
Samplerate: 44100 HzChannels: 2Bits per sample: 16Bitrate: 1099 kbpsCodec: FLAC================================================================================

2013 - In a Locked Room On the Moon [43:40]

Tracklist:
01. The Evil Stepsister (3:16)
02. The Deepest Breath (4:30)
03. Even If It Takes a Lifetime (4:47)
04. Trick Question (5:13)
05. Sandmonster (3:01)
06. In a Locked Room On the Moon (2:56)
07. The Pickpocket's Remorse (3:38)
08. Dizzy With a Dame (3:18)
09. An Extra Emotion (4:39)
10. Electric in My Veins (8:21)
Line-up / Musicians:
Bass – Matt King
Drums – Travis Orbin
Guitar – Nick Johnston

Лог создания рипа

Exact Audio Copy V1.3 from 2. September 2016
EAC extraction logfile from 28. March 2017, 8:08
Nick Johnston / In a Locked Room on the Moon
Used drive : PIONEER BD-RW BDR-XD05 Adapter: 1 ID: 0
Read mode : SecureUtilize accurate stream : YesDefeat audio cache : YesMake use of C2 pointers : No
Read offset correction : 667Overread into Lead-In and Lead-Out : NoFill up missing offset samples with silence : YesDelete leading and trailing silent blocks : NoNull samples used in CRC calculations : YesUsed interface : Native Win32 interface for Win NT & 2000Gap handling : Appended to previous track
Used output format : User Defined EncoderSelected bitrate : 1024 kBit/sQuality : HighAdd ID3 tag : NoCommand line compressor : C:\Program Files (x86)\Exact Audio Copy\Flac\flac.exeAdditional command line options : -8 -e -p -V -T "ARTIST=%artist%" -T "TITLE=%title%" -T "ALBUM=%albumtitle%" -T "DATE=%year%" -T "TRACKNUMBER=%tracknr%" -T "GENRE=%genre%" -T "PERFORMER=%albuminterpret%" -T "COMPOSER=%composer%" %haslyrics%--tag-from-file=LYRICS="%lyricsfile%"%haslyrics% -T "ALBUMARTIST=%albumartist%" -T "DISCNUMBER=%cdnumber%" -T "TOTALDISCS=%totalcds%" -T "TOTALTRACKS=%numtracks%" -T "COMMENT=%comment%" %source% -o %dest%
TOC of the extracted CD
Track | Start | Length | Start sector | End sector --------------------------------------------------------- 1 | 0:00.00 | 3:16.03 | 0 | 14702 2 | 3:16.03 | 4:30.11 | 14703 | 34963 3 | 7:46.14 | 4:46.70 | 34964 | 56483 4 | 12:33.09 | 5:12.66 | 56484 | 79949 5 | 17:46.00 | 3:01.30 | 79950 | 93554 6 | 20:47.30 | 2:56.07 | 93555 | 106761 7 | 23:43.37 | 3:38.36 | 106762 | 123147 8 | 27:21.73 | 3:18.34 | 123148 | 138031 9 | 30:40.32 | 4:38.70 | 138032 | 158951 10 | 35:19.27 | 8:21.44 | 158952 | 196570
Track 1
Filename C:\_exa\_eac_rips\Nick Johnston - In a Locked Room on the Moon (2013) [FLAC]\01 - The Evil Stepsister.wav
Pre-gap length 0:00:02.00
Peak level 100.0 % Extraction speed 2.6 X Track quality 100.0 % Test CRC 8ED94736 Copy CRC 8ED94736 Accurately ripped (confidence 1) [0DE67DA6] (AR v2) Copy OK
Track 2
Filename C:\_exa\_eac_rips\Nick Johnston - In a Locked Room on the Moon (2013) [FLAC]\02 - The Deepest Breath.wav
Peak level 100.0 % Extraction speed 3.1 X Track quality 100.0 % Test CRC 541018CE Copy CRC 541018CE Accurately ripped (confidence 1) [7D8C3488] (AR v2) Copy OK
Track 3
Filename C:\_exa\_eac_rips\Nick Johnston - In a Locked Room on the Moon (2013) [FLAC]\03 - Even If It Takes a Lifetime.wav
Peak level 100.0 % Extraction speed 3.4 X Track quality 100.0 % Test CRC 1397D90E Copy CRC 1397D90E Accurately ripped (confidence 1) [93E3C14D] (AR v2) Copy OK
Track 4
Filename C:\_exa\_eac_rips\Nick Johnston - In a Locked Room on the Moon (2013) [FLAC]\04 - Trick Question.wav
Peak level 100.0 % Extraction speed 3.8 X Track quality 100.0 % Test CRC 861A6033 Copy CRC 861A6033 Accurately ripped (confidence 1) [7F7D8504] (AR v2) Copy OK
Track 5
Filename C:\_exa\_eac_rips\Nick Johnston - In a Locked Room on the Moon (2013) [FLAC]\05 - Sandmonster.wav
Peak level 100.0 % Extraction speed 3.7 X Track quality 100.0 % Test CRC 98C7455C Copy CRC 98C7455C Accurately ripped (confidence 1) [77466BB6] (AR v2) Copy OK
Track 6
Filename C:\_exa\_eac_rips\Nick Johnston - In a Locked Room on the Moon (2013) [FLAC]\06 - In a Locked Room on the Moon.wav
Peak level 100.0 % Extraction speed 3.8 X Track quality 100.0 % Test CRC FAF468D2 Copy CRC FAF468D2 Accurately ripped (confidence 1) [91A27530] (AR v2) Copy OK
Track 7
Filename C:\_exa\_eac_rips\Nick Johnston - In a Locked Room on the Moon (2013) [FLAC]\07 - The Pickpocket’s Remorse.wav
Peak level 100.0 % Extraction speed 3.6 X Track quality 99.9 % Test CRC 526D5356 Copy CRC 526D5356 Accurately ripped (confidence 1) [F67D3622] (AR v2) Copy OK
Track 8
Filename C:\_exa\_eac_rips\Nick Johnston - In a Locked Room on the Moon (2013) [FLAC]\08 - Dizzy With a Dame.wav
Peak level 100.0 % Extraction speed 4.2 X Track quality 100.0 % Test CRC 7536D692 Copy CRC 7536D692 Accurately ripped (confidence 1) [53865FAE] (AR v2) Copy OK
Track 9
Filename C:\_exa\_eac_rips\Nick Johnston - In a Locked Room on the Moon (2013) [FLAC]\09 - An Extra Emotion.wav
Peak level 100.0 % Extraction speed 4.6 X Track quality 100.0 % Test CRC 4A3276B4 Copy CRC 4A3276B4 Accurately ripped (confidence 1) [DB006801] (AR v2) Copy OK
Track 10
Filename C:\_exa\_eac_rips\Nick Johnston - In a Locked Room on the Moon (2013) [FLAC]\10 - Electric in My Veins.wav
Peak level 100.0 % Extraction speed 5.1 X Track quality 100.0 % Test CRC F49B1E00 Copy CRC F49B1E00 Accurately ripped (confidence 1) [BC2A5694] (AR v2) Copy OK
All tracks accurately ripped
No errors occurred
End of status report
---- CUETools DB Plugin V2.1.6
[CTDB TOCID: KZ1e8ftzJYAdxfxXg7e0cFGoU5U-] foundSubmit result: KZ1e8ftzJYAdxfxXg7e0cFGoU5U- has been confirmedTrack | CTDB Status 1 | (2/2) Accurately ripped 2 | (2/2) Accurately ripped 3 | (2/2) Accurately ripped 4 | (2/2) Accurately ripped 5 | (2/2) Accurately ripped 6 | (2/2) Accurately ripped 7 | (2/2) Accurately ripped 8 | (2/2) Accurately ripped 9 | (2/2) Accurately ripped 10 | (2/2) Accurately ripped
==== Log checksum 0503B96C7C5C6B77BF29DAA1B5D9D2DF89626B2D18DACF6CB4E3E91A6FE14402 ====

Содержание индексной карты (.CUE)

REM GENRE "Instrumental Rock"REM DATE 2013REM DISCID 850A3C0AREM COMMENT "ExactAudioCopy v1.3"PERFORMER "Nick Johnston"TITLE "In a Locked Room on the Moon"REM COMPOSER ""FILE "01 - The Evil Stepsister.wav" WAVE  TRACK 01 AUDIO    TITLE "The Evil Stepsister"    PERFORMER "Nick Johnston"    REM COMPOSER ""    ISRC CA5TL1300011    INDEX 01 00:00:00FILE "02 - The Deepest Breath.wav" WAVE  TRACK 02 AUDIO    TITLE "The Deepest Breath"    PERFORMER "Nick Johnston"    REM COMPOSER ""    ISRC CA5TL1300012    INDEX 01 00:00:00FILE "03 - Even If It Takes a Lifetime.wav" WAVE  TRACK 03 AUDIO    TITLE "Even If It Takes a Lifetime"    PERFORMER "Nick Johnston"    REM COMPOSER ""    ISRC CA5TL1300013    INDEX 01 00:00:00FILE "04 - Trick Question.wav" WAVE  TRACK 04 AUDIO    TITLE "Trick Question"    PERFORMER "Nick Johnston"    REM COMPOSER ""    ISRC CA5TL1300014    INDEX 01 00:00:00FILE "05 - Sandmonster.wav" WAVE  TRACK 05 AUDIO    TITLE "Sandmonster"    PERFORMER "Nick Johnston"    REM COMPOSER ""    ISRC CA5TL1300015    INDEX 01 00:00:00FILE "06 - In a Locked Room on the Moon.wav" WAVE  TRACK 06 AUDIO    TITLE "In a Locked Room on the Moon"    PERFORMER "Nick Johnston"    REM COMPOSER ""    ISRC CA5TL1300016    INDEX 01 00:00:00FILE "07 - The Pickpocket’s Remorse.wav" WAVE  TRACK 07 AUDIO    TITLE "The Pickpocket’s Remorse"    PERFORMER "Nick Johnston"    REM COMPOSER ""    ISRC CA5TL1300017    INDEX 01 00:00:00FILE "08 - Dizzy With a Dame.wav" WAVE  TRACK 08 AUDIO    TITLE "Dizzy With a Dame"    PERFORMER "Nick Johnston"    REM COMPOSER ""    ISRC CA5TL1300018    INDEX 01 00:00:00FILE "09 - An Extra Emotion.wav" WAVE  TRACK 09 AUDIO    TITLE "An Extra Emotion"    PERFORMER "Nick Johnston"    REM COMPOSER ""    ISRC CA5TL1300019    INDEX 01 00:00:00FILE "10 - Electric in My Veins.wav" WAVE  TRACK 10 AUDIO    TITLE "Electric in My Veins"    PERFORMER "Nick Johnston"    REM COMPOSER ""    ISRC CA5TL1300020    INDEX 01 00:00:00

Лог проверки качества

-----------------------
DON'T MODIFY THIS FILE
-----------------------
PERFORMER: auCDtect Task Manager, ver. 1.6.0 RC1 build 1.6.0.1Copyright (c) 2008-2010 y-soft. All rights reservedhttp://y-soft.org
ANALYZER: auCDtect: CD records authenticity detector, version 0.8.2Copyright (c) 2004 Oleg Berngardt. All rights reserved.Copyright (c) 2004 Alexander Djourik. All rights reserved.
FILE: 10 - Electric in My Veins.flac Size: 65036334 Hash: CF1E98661F763EF68C387715DA2D0C7F Accuracy: -m0 Conclusion: CDDA 100% Signature: E541843AB1B96DA15262665699D67BC497DEE957FILE: 09 - An Extra Emotion.flac Size: 36738972 Hash: D93EE435D8A250D1E91A65F7FE4FDE9B Accuracy: -m0 Conclusion: CDDA 100% Signature: 883EE8BD5229BC6472A75A346A2B3BD7DE04AE3CFILE: 08 - Dizzy With a Dame.flac Size: 25199013 Hash: E0DA63C9CA018AF6806163CF66DE3498 Accuracy: -m0 Conclusion: CDDA 100% Signature: 0D6C11176A1826D030838481A9EE866DAC48D835FILE: 07 - The Pickpocket’s Remorse.flac Size: 26700908 Hash: C38278C734098DB68445F6FBB8FE70F8 Accuracy: -m0 Conclusion: CDDA 99% Signature: 739C9EA082A9197A3F11F619D8C12F8EEE908015FILE: 06 - In a Locked Room on the Moon.flac Size: 23437995 Hash: 11DF85AFF5481857C1D18CCB5795BA71 Accuracy: -m0 Conclusion: CDDA 100% Signature: 75C387EC967801C85DC15F2AF997B71C06CF6011FILE: 05 - Sandmonster.flac Size: 23459067 Hash: 0A6BDC00660E4BF95B3821F61D98B9A3 Accuracy: -m0 Conclusion: CDDA 100% Signature: 8E6BCCA6E423FD87B713AB450E697172FCD35602FILE: 04 - Trick Question.flac Size: 41112485 Hash: 1191338C6E9E7C4A56765819C0873595 Accuracy: -m0 Conclusion: CDDA 99% Signature: 40D1A135D279AC97FBB5AF916720280292444D06FILE: 03 - Even If It Takes a Lifetime.flac Size: 34777827 Hash: F54959C1A4812A876C7105B3D06AF985 Accuracy: -m0 Conclusion: CDDA 100% Signature: 237200E8B9229C1E0627AA867024DCF123160A58FILE: 02 - The Deepest Breath.flac Size: 36284528 Hash: 7559632A894A133FA4C62D4FF1EDF274 Accuracy: -m0 Conclusion: CDDA 100% Signature: C74D404113F0BEB8D739C685BDC63E50D9A9C600FILE: 01 - The Evil Stepsister.flac Size: 25262951 Hash: BA8312197DA39C47BC88A85BBAF9B14B Accuracy: -m0 Conclusion: CDDA 100% Signature: 987E1A032EDE78A4466B12AA9CE41AD7CD48DD7A

Лог CUETools

[CUETools log; Date: 25.06.2018 20:15:21; Version: 2.1.5][CTDB TOCID: KZ1e8ftzJYAdxfxXg7e0cFGoU5U-] found.Track | CTDB Status  1   | (12/12) Accurately ripped  2   | (12/12) Accurately ripped  3   | (12/12) Accurately ripped  4   | (12/12) Accurately ripped  5   | (12/12) Accurately ripped  6   | (12/12) Accurately ripped  7   | (12/12) Accurately ripped  8   | (12/12) Accurately ripped  9   | (12/12) Accurately ripped 10   | (12/12) Accurately ripped[AccurateRip ID: 000f4e71-007acd32-850a3c0a] found.Track   [  CRC   |   V2   ] Status 01     [3b337ce0|0de67da6] (0+2/2) Accurately ripped 02     [b9e5884f|7d8c3488] (0+2/2) Accurately ripped 03     [86c78856|93e3c14d] (0+2/2) Accurately ripped 04     [964d306e|7f7d8504] (0+2/2) Accurately ripped 05     [7b93cd14|77466bb6] (0+2/2) Accurately ripped 06     [07743158|91a27530] (0+2/2) Accurately ripped 07     [53d10cf0|f67d3622] (0+2/2) Accurately ripped 08     [4c33e49f|53865fae] (0+2/2) Accurately ripped 09     [81eb8d5f|db006801] (0+2/2) Accurately ripped 10     [80d2eae0|bc2a5694] (0+2/2) Accurately ripped
Track Peak [ CRC32 ] [W/O NULL] [ LOG ] -- 100,0 [7C31ABA5] [31A98254] 01 100,0 [8ED94736] [44EA181A] CRC32 02 100,0 [541018CE] [6B37A2E8] CRC32 03 100,0 [1397D90E] [054792E8] CRC32 04 100,0 [861A6033] [0813C281] CRC32 05 100,0 [98C7455C] [A3B8B1C1] CRC32 06 100,0 [FAF468D2] [5DA30039] CRC32 07 100,0 [526D5356] [2ABB8742] CRC32 08 100,0 [7536D692] [3A2D1F6B] CRC32 09 100,0 [4A3276B4] [F491EF8D] CRC32 10 100,0 [F49B1E00] [E201DEB4] CRC32

Лог DRM

foobar2000 1.3.9 / Dynamic Range Meter 1.1.1log date: 2018-06-25 20:23:18
--------------------------------------------------------------------------------Analyzed: Nick Johnston / In a Locked Room on the Moon--------------------------------------------------------------------------------
DR Peak RMS Duration Track--------------------------------------------------------------------------------DR8 0.00 dB -8.57 dB 3:16 01-The Evil StepsisterDR5 0.00 dB -5.92 dB 4:30 02-The Deepest BreathDR7 0.00 dB -8.22 dB 4:47 03-Even If It Takes a LifetimeDR7 0.00 dB -7.68 dB 5:13 04-Trick QuestionDR7 0.00 dB -8.09 dB 3:01 05-SandmonsterDR7 0.00 dB -7.63 dB 2:56 06-In a Locked Room on the MoonDR7 0.00 dB -7.84 dB 3:38 07-The Pickpocket’s RemorseDR7 0.00 dB -8.14 dB 3:18 08-Dizzy With a DameDR6 0.00 dB -7.05 dB 4:39 09-An Extra EmotionDR7 0.00 dB -7.83 dB 8:22 10-Electric in My Veins--------------------------------------------------------------------------------
Number of tracks: 10Official DR value: DR7
Samplerate: 44100 HzChannels: 2Bits per sample: 16Bitrate: 1037 kbpsCodec: FLAC================================================================================

2014 - Atomic Mind [54:33]

Tracklist:
01. Atomic Mind (4:38)
02. Ghost of the Robot Graveyard (5:14)
03. Last Deals of Dead Men (6:19)
04. Silver Tongued Devil (8:14)
05. Out of the Wasteland (3:32)
06. Wonderful Madness (5:07)
07. Ultra Force (4:47)
08. Scoundrels Lounge (6:29)
09. Lost in a Dream (4:08)
10. My Final Days On a Doomed Planet (6:04)
Line-up / Musicians:
Bass – Bryan Beller
Drums – Marco Minnemann
Guitar – Guthrie Govan
Guitar – Nick Johnston, Guthrie Govan

Лог создания рипа

Exact Audio Copy V1.3 from 2. September 2016
EAC extraction logfile from 27. March 2017, 15:56
Nick Johnston / Atomic Mind
Used drive : PIONEER BD-RW BDR-XD05 Adapter: 1 ID: 0
Read mode : SecureUtilize accurate stream : YesDefeat audio cache : YesMake use of C2 pointers : No
Read offset correction : 667Overread into Lead-In and Lead-Out : NoFill up missing offset samples with silence : YesDelete leading and trailing silent blocks : NoNull samples used in CRC calculations : YesUsed interface : Native Win32 interface for Win NT & 2000Gap handling : Appended to previous track
Used output format : User Defined EncoderSelected bitrate : 1024 kBit/sQuality : HighAdd ID3 tag : NoCommand line compressor : C:\Program Files (x86)\Exact Audio Copy\Flac\flac.exeAdditional command line options : -8 -e -p -V -T "ARTIST=%artist%" -T "TITLE=%title%" -T "ALBUM=%albumtitle%" -T "DATE=%year%" -T "TRACKNUMBER=%tracknr%" -T "GENRE=%genre%" -T "PERFORMER=%albuminterpret%" -T "COMPOSER=%composer%" %haslyrics%--tag-from-file=LYRICS="%lyricsfile%"%haslyrics% -T "ALBUMARTIST=%albumartist%" -T "DISCNUMBER=%cdnumber%" -T "TOTALDISCS=%totalcds%" -T "TOTALTRACKS=%numtracks%" -T "COMMENT=%comment%" %source% -o %dest%
TOC of the extracted CD
Track | Start | Length | Start sector | End sector --------------------------------------------------------- 1 | 0:00.00 | 4:38.30 | 0 | 20879 2 | 4:38.30 | 5:13.71 | 20880 | 44425 3 | 9:52.26 | 6:18.45 | 44426 | 72820 4 | 16:10.71 | 8:14.33 | 72821 | 109903 5 | 24:25.29 | 3:32.14 | 109904 | 125817 6 | 27:57.43 | 5:07.31 | 125818 | 148873 7 | 33:04.74 | 4:46.73 | 148874 | 170396 8 | 37:51.72 | 6:28.62 | 170397 | 199558 9 | 44:20.59 | 4:08.18 | 199559 | 218176 10 | 48:29.02 | 6:04.67 | 218177 | 245543
Track 1
Filename C:\_exa\_eac_rips\Nick Johnston - Atomic Mind (2014) [FLAC]\01 - Atomic Mind.wav
Pre-gap length 0:00:02.00
Peak level 94.6 % Extraction speed 2.8 X Track quality 100.0 % Test CRC C09A859B Copy CRC C09A859B Accurately ripped (confidence 1) [F47B8E5A] (AR v2) Copy OK
Track 2
Filename C:\_exa\_eac_rips\Nick Johnston - Atomic Mind (2014) [FLAC]\02 - Ghost Of The Robot Graveyard.wav
Peak level 95.0 % Extraction speed 3.3 X Track quality 100.0 % Test CRC 4A573006 Copy CRC 4A573006 Accurately ripped (confidence 1) [045E29C0] (AR v2) Copy OK
Track 3
Filename C:\_exa\_eac_rips\Nick Johnston - Atomic Mind (2014) [FLAC]\03 - Last Deals Of Dean Men.wav
Peak level 95.1 % Extraction speed 3.7 X Track quality 100.0 % Test CRC D8411070 Copy CRC D8411070 Accurately ripped (confidence 1) [48EF653E] (AR v2) Copy OK
Track 4
Filename C:\_exa\_eac_rips\Nick Johnston - Atomic Mind (2014) [FLAC]\04 - Silver Tongued Devil.wav
Peak level 94.4 % Extraction speed 4.2 X Track quality 100.0 % Test CRC 270C5604 Copy CRC 270C5604 Accurately ripped (confidence 1) [D1101E7D] (AR v2) Copy OK
Track 5
Filename C:\_exa\_eac_rips\Nick Johnston - Atomic Mind (2014) [FLAC]\05 - Out Of The Wasteland.wav
Peak level 93.7 % Extraction speed 4.1 X Track quality 100.0 % Test CRC 0694963C Copy CRC 0694963C Accurately ripped (confidence 1) [4DEEEB1D] (AR v2) Copy OK
Track 6
Filename C:\_exa\_eac_rips\Nick Johnston - Atomic Mind (2014) [FLAC]\06 - Wonderful Madness.wav
Peak level 95.2 % Extraction speed 4.1 X Track quality 99.9 % Test CRC AD3623C0 Copy CRC AD3623C0 Accurately ripped (confidence 1) [29CA4155] (AR v2) Copy OK
Track 7
Filename C:\_exa\_eac_rips\Nick Johnston - Atomic Mind (2014) [FLAC]\07 - Ultra-Force.wav
Peak level 94.4 % Extraction speed 4.7 X Track quality 100.0 % Test CRC 5EBC9E07 Copy CRC 5EBC9E07 Accurately ripped (confidence 1) [4F84D23B] (AR v2) Copy OK
Track 8
Filename C:\_exa\_eac_rips\Nick Johnston - Atomic Mind (2014) [FLAC]\08 - Scoundrels Lounge.wav
Peak level 94.4 % Extraction speed 5.0 X Track quality 100.0 % Test CRC 9DFD87BD Copy CRC 9DFD87BD Accurately ripped (confidence 1) [4EF38F5E] (AR v2) Copy OK
Track 9
Filename C:\_exa\_eac_rips\Nick Johnston - Atomic Mind (2014) [FLAC]\09 - Lost In A Dream.wav
Peak level 94.5 % Extraction speed 4.9 X Track quality 100.0 % Test CRC F9ADEB66 Copy CRC F9ADEB66 Accurately ripped (confidence 1) [7E43AE10] (AR v2) Copy OK
Track 10
Filename C:\_exa\_eac_rips\Nick Johnston - Atomic Mind (2014) [FLAC]\10 - My Final Days On A Doomed Planet.wav
Peak level 94.8 % Extraction speed 4.9 X Track quality 99.9 % Test CRC 391F88CB Copy CRC 391F88CB Accurately ripped (confidence 1) [F3D4E7C9] (AR v2) Copy OK
All tracks accurately ripped
No errors occurred
End of status report
---- CUETools DB Plugin V2.1.6
[CTDB TOCID: ruWfg2igJnr60uBLUstZls2dLgI-] foundSubmit result: ruWfg2igJnr60uBLUstZls2dLgI- has been confirmedTrack | CTDB Status 1 | (2/2) Accurately ripped 2 | (2/2) Accurately ripped 3 | (2/2) Accurately ripped 4 | (2/2) Accurately ripped 5 | (2/2) Accurately ripped 6 | (2/2) Accurately ripped 7 | (2/2) Accurately ripped 8 | (2/2) Accurately ripped 9 | (2/2) Accurately ripped 10 | (2/2) Accurately ripped
==== Log checksum 71CC4FBCF345AFB2ACC7A15064BD2D06071EBF30D61C9D0C3C1BA78663DFBDE1 ====

Содержание индексной карты (.CUE)

REM GENRE "Instrumental Rock"REM DATE 2014REM DISCID 9C0CC90AREM COMMENT "ExactAudioCopy v1.3"PERFORMER "Nick Johnston"TITLE "Atomic Mind"REM COMPOSER ""FILE "01 - Atomic Mind.wav" WAVE  TRACK 01 AUDIO    TITLE "Atomic Mind"    PERFORMER "Nick Johnston"    REM COMPOSER ""    ISRC CA5TL1400021    INDEX 01 00:00:00FILE "02 - Ghost Of The Robot Graveyard.wav" WAVE  TRACK 02 AUDIO    TITLE "Ghost Of The Robot Graveyard"    PERFORMER "Nick Johnston"    REM COMPOSER ""    ISRC CA5TL1400022    INDEX 01 00:00:00FILE "03 - Last Deals Of Dean Men.wav" WAVE  TRACK 03 AUDIO    TITLE "Last Deals Of Dean Men"    PERFORMER "Nick Johnston"    REM COMPOSER ""    ISRC CA5TL1400023    INDEX 01 00:00:00FILE "04 - Silver Tongued Devil.wav" WAVE  TRACK 04 AUDIO    TITLE "Silver Tongued Devil"    PERFORMER "Nick Johnston"    REM COMPOSER ""    ISRC CA5TL1400024    INDEX 01 00:00:00FILE "05 - Out Of The Wasteland.wav" WAVE  TRACK 05 AUDIO    TITLE "Out Of The Wasteland"    PERFORMER "Nick Johnston"    REM COMPOSER ""    ISRC CA5TL1400025    INDEX 01 00:00:00FILE "06 - Wonderful Madness.wav" WAVE  TRACK 06 AUDIO    TITLE "Wonderful Madness"    PERFORMER "Nick Johnston"    REM COMPOSER ""    ISRC CA5TL1400026    INDEX 01 00:00:00FILE "07 - Ultra-Force.wav" WAVE  TRACK 07 AUDIO    TITLE "Ultra-Force"    PERFORMER "Nick Johnston"    REM COMPOSER ""    ISRC CA5TL1400027    INDEX 01 00:00:00FILE "08 - Scoundrels Lounge.wav" WAVE  TRACK 08 AUDIO    TITLE "Scoundrels Lounge"    PERFORMER "Nick Johnston"    REM COMPOSER ""    ISRC CA5TL1400028    INDEX 01 00:00:00FILE "09 - Lost In A Dream.wav" WAVE  TRACK 09 AUDIO    TITLE "Lost In A Dream"    PERFORMER "Nick Johnston"    REM COMPOSER ""    ISRC CA5TL1400029    INDEX 01 00:00:00FILE "10 - My Final Days On A Doomed Planet.wav" WAVE  TRACK 10 AUDIO    TITLE "My Final Days On A Doomed Planet"    PERFORMER "Nick Johnston"    REM COMPOSER ""    ISRC CA5TL1400030    INDEX 01 00:00:00

Лог проверки качества

-----------------------
DON'T MODIFY THIS FILE
-----------------------
PERFORMER: auCDtect Task Manager, ver. 1.6.0 RC1 build 1.6.0.1Copyright (c) 2008-2010 y-soft. All rights reservedhttp://y-soft.org
ANALYZER: auCDtect: CD records authenticity detector, version 0.8.2Copyright (c) 2004 Oleg Berngardt. All rights reserved.Copyright (c) 2004 Alexander Djourik. All rights reserved.
FILE: 10 - My Final Days On A Doomed Planet.flac Size: 41471295 Hash: C5F24BE99BE6B97A697795FB358EC657 Accuracy: -m0 Conclusion: CDDA 100% Signature: 804D4BD570353ADD3226D7FDF5A9DFA33731433CFILE: 09 - Lost In A Dream.flac Size: 31827331 Hash: BD8B0970608308815E3690A4D453A9DB Accuracy: -m0 Conclusion: CDDA 100% Signature: E201B6281EF49CCB7A4BD3EE661AA5FCC0E4C5C5FILE: 08 - Scoundrels Lounge.flac Size: 48865366 Hash: 1F113DA240D335B671FF8AB998AAAD7D Accuracy: -m0 Conclusion: CDDA 100% Signature: C0F4212984DA8AE9E961966841489E39B4D918A1FILE: 07 - Ultra-Force.flac Size: 37222497 Hash: C579CD76ECC23DBD9C8C5EE81995BBA4 Accuracy: -m0 Conclusion: CDDA 100% Signature: 98FE19DC6D6415FA8C7AF34FA5F31C792D59CB0AFILE: 06 - Wonderful Madness.flac Size: 40011980 Hash: 9C1ECE95C1798C00129EA4DF31E94E51 Accuracy: -m0 Conclusion: CDDA 100% Signature: D216D187704A3A20D6F987B7C062BD4DE846535BFILE: 05 - Out Of The Wasteland.flac Size: 27389637 Hash: CEF955B5096505107D45FEC03ABC5402 Accuracy: -m0 Conclusion: CDDA 100% Signature: 0EF7A4E021B0256392FECB734F6215DD36ECB918FILE: 04 - Silver Tongued Devil.flac Size: 62774109 Hash: 9BE5AEC5F6E5BA437153940F82397A3C Accuracy: -m0 Conclusion: CDDA 100% Signature: E3113CC17A7939A8CBD8BA496F44DD3346EF3ADEFILE: 03 - Last Deals Of Dean Men.flac Size: 49151106 Hash: A95C0D83CC844D4D60386E01126C1DF4 Accuracy: -m0 Conclusion: CDDA 100% Signature: A00E565E6209B81A93F3051D2AD25F231298326CFILE: 02 - Ghost Of The Robot Graveyard.flac Size: 40249191 Hash: F6D68C5C97389C93846447E8079385F1 Accuracy: -m0 Conclusion: CDDA 99% Signature: C467F40C0C772BD42D921459AA16EE829BA669CFFILE: 01 - Atomic Mind.flac Size: 35079087 Hash: FB9D50FEF23065E9361237FB25516F7A Accuracy: -m0 Conclusion: MPEG 95% Signature: B964762C09D9D3EB72C1AEB6A187BBFDCDA58F23

Скриншот спектра частот

Лог CUETools

[CUETools log; Date: 25.06.2018 20:14:43; Version: 2.1.5][CTDB TOCID: ruWfg2igJnr60uBLUstZls2dLgI-] found.Track | CTDB Status  1   | (13/13) Accurately ripped  2   | (13/13) Accurately ripped  3   | (13/13) Accurately ripped  4   | (13/13) Accurately ripped  5   | (13/13) Accurately ripped  6   | (13/13) Accurately ripped  7   | (13/13) Accurately ripped  8   | (13/13) Accurately ripped  9   | (13/13) Accurately ripped 10   | (13/13) Accurately ripped[AccurateRip ID: 0014b270-00a5a1ae-9c0cc90a] found.Track   [  CRC   |   V2   ] Status 01     [34b59e65|f47b8e5a] (0+2/2) Accurately ripped 02     [8d1ea106|045e29c0] (0+2/2) Accurately ripped 03     [4a29d30c|48ef653e] (0+2/2) Accurately ripped 04     [e768ff0e|d1101e7d] (0+2/2) Accurately ripped 05     [5ae109e1|4deeeb1d] (0+2/2) Accurately ripped 06     [a5b8c745|29ca4155] (0+2/2) Accurately ripped 07     [e0b0e5fd|4f84d23b] (0+2/2) Accurately ripped 08     [2a7b8677|4ef38f5e] (0+2/2) Accurately ripped 09     [6448126a|7e43ae10] (0+2/2) Accurately ripped 10     [31ce34ad|f3d4e7c9] (0+2/2) Accurately ripped
Track Peak [ CRC32 ] [W/O NULL] [ LOG ] -- 95,2 [B502894F] [20D13F9B] 01 94,6 [C09A859B] [3BDAF900] CRC32 02 95,0 [4A573006] [643CC594] CRC32 03 95,1 [D8411070] [EA0C88B3] CRC32 04 94,4 [270C5604] [5913C470] CRC32 05 93,7 [0694963C] [48101EDF] CRC32 06 95,2 [AD3623C0] [C5E61995] CRC32 07 94,4 [5EBC9E07] [35EBC988] CRC32 08 94,4 [9DFD87BD] [87959012] CRC32 09 94,5 [F9ADEB66] [1B050870] CRC32 10 94,8 [391F88CB] [4E60BE51] CRC32

Лог DRM

foobar2000 1.3.9 / Dynamic Range Meter 1.1.1log date: 2018-06-25 19:50:42
--------------------------------------------------------------------------------Analyzed: Nick Johnston / Atomic Mind--------------------------------------------------------------------------------
DR Peak RMS Duration Track--------------------------------------------------------------------------------DR6 -0.48 dB -7.75 dB 4:38 01-Atomic MindDR6 -0.44 dB -8.06 dB 5:14 02-Ghost Of The Robot GraveyardDR6 -0.43 dB -7.48 dB 6:19 03-Last Deals Of Dean MenDR7 -0.49 dB -8.64 dB 8:14 04-Silver Tongued DevilDR6 -0.56 dB -7.23 dB 3:32 05-Out Of The WastelandDR6 -0.43 dB -7.76 dB 5:07 06-Wonderful MadnessDR6 -0.50 dB -7.70 dB 4:47 07-Ultra-ForceDR6 -0.49 dB -8.06 dB 6:29 08-Scoundrels LoungeDR7 -0.49 dB -7.93 dB 4:08 09-Lost In A DreamDR6 -0.46 dB -8.59 dB 6:05 10-My Final Days On A Doomed Planet--------------------------------------------------------------------------------
Number of tracks: 10Official DR value: DR6
Samplerate: 44100 HzChannels: 2Bits per sample: 16Bitrate: 909 kbpsCodec: FLAC================================================================================

2016 - Remarkably Human [52:44]

Tracklist:
01. Ignore Alien Orders (3:48)
02. Remarkably Human (6:38)
03. Impossible Things (7:12)
04. Poison Touch (4:24)
05. Hypergiant (7:32)
06. Weakened by Winter (7:58)
07. Fear Had Him by the Throat (5:40)
08. A Sick and Injured Brain (9:31)
Line-up / Musicians:
Bass – Bryan Beller
Drums – Gavin Harrison
Piano – Luke Martin
Guitar – Nick Johnston, Guthrie Govan

Лог создания рипа

Exact Audio Copy V1.3 from 2. September 2016
EAC extraction logfile from 27. March 2017, 15:12
Nick Johnston / Remarkably Human
Used drive : PIONEER BD-RW BDR-XD05 Adapter: 1 ID: 0
Read mode : SecureUtilize accurate stream : YesDefeat audio cache : YesMake use of C2 pointers : No
Read offset correction : 667Overread into Lead-In and Lead-Out : NoFill up missing offset samples with silence : YesDelete leading and trailing silent blocks : NoNull samples used in CRC calculations : YesUsed interface : Native Win32 interface for Win NT & 2000Gap handling : Appended to previous track
Used output format : User Defined EncoderSelected bitrate : 1024 kBit/sQuality : HighAdd ID3 tag : NoCommand line compressor : C:\Program Files (x86)\Exact Audio Copy\Flac\flac.exeAdditional command line options : -8 -e -p -V -T "ARTIST=%artist%" -T "TITLE=%title%" -T "ALBUM=%albumtitle%" -T "DATE=%year%" -T "TRACKNUMBER=%tracknr%" -T "GENRE=%genre%" -T "PERFORMER=%albuminterpret%" -T "COMPOSER=%composer%" %haslyrics%--tag-from-file=LYRICS="%lyricsfile%"%haslyrics% -T "ALBUMARTIST=%albumartist%" -T "DISCNUMBER=%cdnumber%" -T "TOTALDISCS=%totalcds%" -T "TOTALTRACKS=%numtracks%" -T "COMMENT=%comment%" %source% -o %dest%
TOC of the extracted CD
Track | Start | Length | Start sector | End sector --------------------------------------------------------- 1 | 0:00.00 | 3:48.33 | 0 | 17132 2 | 3:48.33 | 6:38.29 | 17133 | 47011 3 | 10:26.62 | 7:11.55 | 47012 | 79391 4 | 17:38.42 | 4:24.33 | 79392 | 99224 5 | 22:03.00 | 7:32.34 | 99225 | 133158 6 | 29:35.34 | 7:58.00 | 133159 | 169008 7 | 37:33.34 | 5:39.72 | 169009 | 194505 8 | 43:13.31 | 9:31.61 | 194506 | 237391
Track 1
Filename C:\_exa\_eac_rips\Nick Johnston - Remarkably Human (2016) [FLAC]\01 - Ignore Alien Orders.wav
Pre-gap length 0:00:02.00
Peak level 100.0 % Extraction speed 2.7 X Track quality 100.0 % Test CRC 742ABF64 Copy CRC 742ABF64 Accurately ripped (confidence 2) [66B3DDD9] (AR v2) Copy OK
Track 2
Filename C:\_exa\_eac_rips\Nick Johnston - Remarkably Human (2016) [FLAC]\02 - Remarkably Human.wav
Peak level 100.0 % Extraction speed 3.1 X Track quality 99.9 % Test CRC 451041C3 Copy CRC 451041C3 Accurately ripped (confidence 2) [95E5D213] (AR v2) Copy OK
Track 3
Filename C:\_exa\_eac_rips\Nick Johnston - Remarkably Human (2016) [FLAC]\03 - Impossible Things.wav
Peak level 100.0 % Extraction speed 3.8 X Track quality 100.0 % Test CRC 6E0D1ADA Copy CRC 6E0D1ADA Accurately ripped (confidence 2) [8A381A5C] (AR v2) Copy OK
Track 4
Filename C:\_exa\_eac_rips\Nick Johnston - Remarkably Human (2016) [FLAC]\04 - Poison Touch.wav
Peak level 100.0 % Extraction speed 4.0 X Track quality 100.0 % Test CRC 9EC81C87 Copy CRC 9EC81C87 Accurately ripped (confidence 2) [01DFAB7D] (AR v2) Copy OK
Track 5
Filename C:\_exa\_eac_rips\Nick Johnston - Remarkably Human (2016) [FLAC]\05 - Hypergiant.wav
Peak level 100.0 % Extraction speed 4.5 X Track quality 100.0 % Test CRC 28663362 Copy CRC 28663362 Accurately ripped (confidence 2) [88D680CD] (AR v2) Copy OK
Track 6
Filename C:\_exa\_eac_rips\Nick Johnston - Remarkably Human (2016) [FLAC]\06 - Weakened by Winter.wav
Peak level 100.0 % Extraction speed 4.8 X Track quality 100.0 % Test CRC 0DF0731D Copy CRC 0DF0731D Accurately ripped (confidence 2) [4E2D20A3] (AR v2) Copy OK
Track 7
Filename C:\_exa\_eac_rips\Nick Johnston - Remarkably Human (2016) [FLAC]\07 - Fear Had Him by the Throat.wav
Peak level 100.0 % Extraction speed 4.5 X Track quality 99.9 % Test CRC 93EC3400 Copy CRC 93EC3400 Accurately ripped (confidence 2) [217AB20E] (AR v2) Copy OK
Track 8
Filename C:\_exa\_eac_rips\Nick Johnston - Remarkably Human (2016) [FLAC]\08 - A Sick and Injured Brain.wav
Peak level 100.0 % Extraction speed 5.4 X Track quality 100.0 % Test CRC 95532C90 Copy CRC 95532C90 Accurately ripped (confidence 2) [9988D4C8] (AR v2) Copy OK
All tracks accurately ripped
No errors occurred
End of status report
---- CUETools DB Plugin V2.1.6
[CTDB TOCID: gFGjfNugPOTT9aWp0Yihds8Ooe4-] foundSubmit result: already submittedTrack | CTDB Status 1 | (6/6) Accurately ripped 2 | (6/6) Accurately ripped 3 | (6/6) Accurately ripped 4 | (6/6) Accurately ripped 5 | (6/6) Accurately ripped 6 | (6/6) Accurately ripped 7 | (6/6) Accurately ripped 8 | (6/6) Accurately ripped
==== Log checksum E2AA1247BFA8DA214DA586F0AF1E0A925825DC157484E04FC3EC4362587C3E57 ====

Содержание индексной карты (.CUE)

REM GENRE "Instrumental Rock"REM DATE 2016REM DISCID 620C5D08REM COMMENT "ExactAudioCopy v1.3"PERFORMER "Nick Johnston"TITLE "Remarkably Human"REM COMPOSER ""FILE "01 - Ignore Alien Orders.wav" WAVE  TRACK 01 AUDIO    TITLE "Ignore Alien Orders"    PERFORMER "Nick Johnston"    REM COMPOSER ""    ISRC CA5TL1600031    INDEX 01 00:00:00FILE "02 - Remarkably Human.wav" WAVE  TRACK 02 AUDIO    TITLE "Remarkably Human"    PERFORMER "Nick Johnston"    REM COMPOSER ""    ISRC CA5TL1600032    INDEX 01 00:00:00FILE "03 - Impossible Things.wav" WAVE  TRACK 03 AUDIO    TITLE "Impossible Things"    PERFORMER "Nick Johnston"    REM COMPOSER ""    ISRC CA5TL1600033    INDEX 01 00:00:00FILE "04 - Poison Touch.wav" WAVE  TRACK 04 AUDIO    TITLE "Poison Touch"    PERFORMER "Nick Johnston"    REM COMPOSER ""    ISRC CA5TL1600034    INDEX 01 00:00:00FILE "05 - Hypergiant.wav" WAVE  TRACK 05 AUDIO    TITLE "Hypergiant"    PERFORMER "Nick Johnston"    REM COMPOSER ""    ISRC CA5TL1600035    INDEX 01 00:00:00FILE "06 - Weakened by Winter.wav" WAVE  TRACK 06 AUDIO    TITLE "Weakened by Winter"    PERFORMER "Nick Johnston"    REM COMPOSER ""    ISRC CA5TL1600036    INDEX 01 00:00:00FILE "07 - Fear Had Him by the Throat.wav" WAVE  TRACK 07 AUDIO    TITLE "Fear Had Him by the Throat"    PERFORMER "Nick Johnston"    REM COMPOSER ""    ISRC CA5TL1600037    INDEX 01 00:00:00FILE "08 - A Sick and Injured Brain.wav" WAVE  TRACK 08 AUDIO    TITLE "A Sick and Injured Brain"    PERFORMER "Nick Johnston"    REM COMPOSER ""    ISRC CA5TL1600038    INDEX 01 00:00:00

Лог проверки качества

-----------------------
DON'T MODIFY THIS FILE
-----------------------
PERFORMER: auCDtect Task Manager, ver. 1.6.0 RC1 build 1.6.0.1Copyright (c) 2008-2010 y-soft. All rights reservedhttp://y-soft.org
ANALYZER: auCDtect: CD records authenticity detector, version 0.8.2Copyright (c) 2004 Oleg Berngardt. All rights reserved.Copyright (c) 2004 Alexander Djourik. All rights reserved.
FILE: 08 - A Sick and Injured Brain.flac Size: 61816265 Hash: DAA56870431F30FA49805F9C872A68AB Accuracy: -m0 Conclusion: CDDA 99% Signature: E5D49C506AD2AA96610140C0F50FFA73672CAE9DFILE: 07 - Fear Had Him by the Throat.flac Size: 41648474 Hash: 84B7098E796709349859A1B3575DE8D4 Accuracy: -m0 Conclusion: CDDA 100% Signature: 25740411FEB1FB7D3C3DAF9B6B52FDCB795C9C66FILE: 06 - Weakened by Winter.flac Size: 53722018 Hash: E75A2EB9D584872E679736921F6B71D2 Accuracy: -m0 Conclusion: CDDA 100% Signature: F8E6EA07C56B6F983B1DAB85F7BB498E2FBE03BEFILE: 05 - Hypergiant.flac Size: 54274262 Hash: B72559C63754F397BE195B234E6DFD07 Accuracy: -m0 Conclusion: CDDA 100% Signature: 72EF7014BCC0B129271E4479BD0CB7415918788EFILE: 04 - Poison Touch.flac Size: 32328554 Hash: 299D3C4D07858BF0B7633C7523E495AA Accuracy: -m0 Conclusion: CDDA 100% Signature: A631EF05E3A0936B1149403C1302795E270C0484FILE: 03 - Impossible Things.flac Size: 51247359 Hash: 89AF5031143DECF0499C5C3AD6F6C4A1 Accuracy: -m0 Conclusion: CDDA 100% Signature: CA7DFB377F13E3515697C884D3C45CCD6BED227CFILE: 02 - Remarkably Human.flac Size: 44629975 Hash: 95166DAC3C4905B912C39F1B2A607A8F Accuracy: -m0 Conclusion: CDDA 99% Signature: 7454B810EADD722AC9CFCCA9F027CDEF9DB2D8E5FILE: 01 - Ignore Alien Orders.flac Size: 23905741 Hash: F9253307CC83032EBDDA6A8C3B6BF163 Accuracy: -m0 Conclusion: CDDA 99% Signature: DFDAA10E1FD6C2FBE9C1A584B15901539242C9E9

Лог CUETools

[CUETools log; Date: 25.06.2018 20:17:06; Version: 2.1.5][CTDB TOCID: gFGjfNugPOTT9aWp0Yihds8Ooe4-] found.Track | CTDB Status  1   | (23/23) Accurately ripped  2   | (23/23) Accurately ripped  3   | (23/23) Accurately ripped  4   | (23/23) Accurately ripped  5   | (23/23) Accurately ripped  6   | (23/23) Accurately ripped  7   | (23/23) Accurately ripped  8   | (23/23) Accurately ripped[AccurateRip ID: 000ee7bc-0065ada5-620c5d08] found.Track   [  CRC   |   V2   ] Status 01     [0357ae6f|66b3ddd9] (0+3/3) Accurately ripped 02     [4fb0094c|95e5d213] (0+3/3) Accurately ripped 03     [b9139194|8a381a5c] (0+3/3) Accurately ripped 04     [26a6d37c|01dfab7d] (0+3/3) Accurately ripped 05     [098a0f16|88d680cd] (0+3/3) Accurately ripped 06     [25991b63|4e2d20a3] (0+3/3) Accurately ripped 07     [c904e5e6|217ab20e] (0+3/3) Accurately ripped 08     [06c8dd68|9988d4c8] (0+3/3) Accurately ripped
Track Peak [ CRC32 ] [W/O NULL] [ LOG ] -- 100,0 [B54F91E6] [FD6A0EDD] 01 100,0 [742ABF64] [D671B817] CRC32 02 100,0 [451041C3] [FCEDF260] CRC32 03 100,0 [6E0D1ADA] [6A342FCB] CRC32 04 100,0 [9EC81C87] [810E6733] CRC32 05 100,0 [28663362] [F4B440A1] CRC32 06 100,0 [0DF0731D] [28766E42] CRC32 07 100,0 [93EC3400] [E51586F4] CRC32 08 100,0 [95532C90] [7D684AD9] CRC32

Лог DRM

foobar2000 1.3.9 / Dynamic Range Meter 1.1.1log date: 2018-06-25 20:25:41
--------------------------------------------------------------------------------Analyzed: Nick Johnston / Remarkably Human--------------------------------------------------------------------------------
DR Peak RMS Duration Track--------------------------------------------------------------------------------DR6 0.00 dB -8.68 dB 3:48 01-Ignore Alien OrdersDR7 0.00 dB -8.61 dB 6:38 02-Remarkably HumanDR7 0.00 dB -8.65 dB 7:12 03-Impossible ThingsDR7 0.00 dB -8.21 dB 4:24 04-Poison TouchDR7 0.00 dB -8.57 dB 7:32 05-HypergiantDR7 0.00 dB -8.66 dB 7:58 06-Weakened by WinterDR6 0.00 dB -7.73 dB 5:40 07-Fear Had Him by the ThroatDR8 0.00 dB -9.90 dB 9:32 08-A Sick and Injured Brain--------------------------------------------------------------------------------
Number of tracks: 8Official DR value: DR7
Samplerate: 44100 HzChannels: 2Bits per sample: 16Bitrate: 865 kbpsCodec: FLAC================================================================================
-Релиз от группы:
Вы не можете начинать темы
Вы не можете отвечать на сообщения
Вы не можете редактировать свои сообщения
Вы не можете удалять свои сообщения
Вы не можете голосовать в опросах
Вы не можете прикреплять файлы к сообщениям
Вы можете скачивать файлы
!ВНИМАНИЕ!

Сайт не предоставляет электронные версии произведений, а занимается лишь коллекционированием и каталогизацией ссылок, присылаемых и публикуемых на форуме нашими читателями. Если вы являетесь правообладателем какого-либо представленного материала и не желаете, чтобы ссылка на него находилась в нашем каталоге, свяжитесь с нами, и мы незамедлительно удалим ее. Файлы для обмена на трекере предоставлены пользователями сайта, и администрация не несет ответственности за их содержание. Просьба не заливать файлы, защищенные авторскими правами, а также файлы нелегального содержания!

Искали программы, игры, дополнения, музыка mp3, аниме, аудио книги, журналы? Добро пожаловать на свободный торрент трекер Torrents, у нас можно скачать бесплатно, без смс и регистрации и прочих ограничений лучшие, отборные сборки программ, игр. Скачать торрентом не составит труда даже не опытному пользователю. Раздачи ежедневно обновляются, только лучшие и качественные раздачи, подробные описания и скриншоты. Огромная коллекция программ для работы со звуком, графикой, дизайном, а так же множество плагинов и инструментов к ним с подробной инструкцией и рекомендациями. Прошивки для навигаторов, карты. Разнообразные игры, для Windows, Linux. В коллекцие есть и старые игры любых жанров, Rpg, Action, Shooter, strategy Множество дополнений, модификаций, сценариев для популярных игр в жанре экш, рпг, гонки, стратегии, логические игры. Множество аддонов и сценариев для Microsoft Flight Simulator Большая коллекция книг, учебников. Если нет возможности купить печатное издание - смело скачивайте цифровую версию книги или, быть может, журнала. Не любите читать - можно загрузить бесплатно аудикнигу. Для веб дизайнеров и программистов так же найдется множество специализированного софта, таких как: редакторы с подсветкой, среды программирования, компоненты, системы управления базами данных, разнообразные скрипты и шаблоны. Не так давно у нас появился материал для автолюбителей и владельцев мото - оригинальные и неоригинальные каталоги запчастей, книги и журналы по ремонту и обслуживанию, видеоуроки, статьи по чип тюнингу, прошивкам. Процедура получения контента элементарная, достаточно просто скачать торрент файл и добавить его в загрузку в вашем торрент клиенте. Если у вас нет специального торрент клиента, вы можете его скачать у нас.