(Jazz-Rock) [CD] Roosevelt Collier (feat. Michael League) - Exit 16 - 2018, FLAC (tracks+.cue), lossless 

Цитировать
ROOSEVELT COLLIER
E X I T
16 '

'
Жанр: Jazz-Rock
Страна-производитель диска: USA
Год издания: 2018
Издатель (лейбл): GroundUP Music
Аудиокодек: FLAC (*.flac)
Тип рипа: tracks+.cue
Битрейт аудио: lossless
Продолжительность: 69:44
Источник (релизер): спасибо everybodyinyet
Наличие сканов: нет

Треклист:
1. Sun up Sun Down
2. Happy Feet
3. Make It Alright
4. Exit 16
5. That Could've Been Bad
6. Supernatural Encounters
7. Spike
8. Shuffle (Bonus Track)
9. Tailor Made (Bonus Track)
10. Spike (Full Length) (Bonus Track)

Лог создания рипа

Exact Audio Copy V1.3 from 2. September 2016
EAC extraction logfile from 22. May 2018, 0:38
Roosevelt Collier / Exit 16
Used drive : TSSTcorpDVD+-RW TS-T633C Adapter: 1 ID: 0
Read mode : SecureUtilize accurate stream : YesDefeat audio cache : YesMake use of C2 pointers : No
Read offset correction : 6Overread into Lead-In and Lead-Out : NoFill up missing offset samples with silence : YesDelete leading and trailing silent blocks : NoNull samples used in CRC calculations : YesUsed interface : Native Win32 interface for Win NT & 2000Gap handling : Appended to previous track
Used output format : User Defined EncoderSelected bitrate : 1024 kBit/sQuality : HighAdd ID3 tag : NoCommand line compressor : C:\Program Files (x86)\Exact Audio Copy\Flac\flac.exeAdditional command line options : -8 -e -p -V -T "ARTIST=%artist%" -T "TITLE=%title%" -T "ALBUM=%albumtitle%" -T "DATE=%year%" -T "TRACKNUMBER=%tracknr%" -T "GENRE=%genre%" -T "PERFORMER=%albuminterpret%" -T "COMPOSER=%composer%" %haslyrics%--tag-from-file=LYRICS="%lyricsfile%"%haslyrics% -T "ALBUMARTIST=%albumartist%" -T "DISCNUMBER=%cdnumber%" -T "TOTALDISCS=%totalcds%" -T "TOTALTRACKS=%numtracks%" -T "COMMENT=%comment%" %source% -o %dest%
TOC of the extracted CD
Track | Start | Length | Start sector | End sector --------------------------------------------------------- 1 | 0:00.00 | 5:27.48 | 0 | 24572 2 | 5:27.48 | 6:03.25 | 24573 | 51822 3 | 11:30.73 | 6:53.69 | 51823 | 82866 4 | 18:24.67 | 6:05.74 | 82867 | 110315 5 | 24:30.66 | 8:06.60 | 110316 | 146825 6 | 32:37.51 | 4:28.35 | 146826 | 166960 7 | 37:06.11 | 8:37.12 | 166961 | 205747 8 | 45:43.23 | 7:23.52 | 205748 | 239024 9 | 53:07.00 | 4:36.04 | 239025 | 259728 10 | 57:43.04 | 12:01.08 | 259729 | 313811
Track 1
Filename F:\EAC Rips\Roosevelt Collier - Exit 16 (2018) [FLAC]\01 - Sun Up Sun Down.wav
Pre-gap length 0:00:02.00
Peak level 98.7 % Extraction speed 2.6 X Track quality 99.9 % Test CRC 90B767FF Copy CRC 90B767FF Track not present in AccurateRip database Copy OK
Track 2
Filename F:\EAC Rips\Roosevelt Collier - Exit 16 (2018) [FLAC]\02 - Happy Feet.wav
Peak level 100.0 % Extraction speed 3.5 X Track quality 100.0 % Test CRC B9A485E6 Copy CRC B9A485E6 Track not present in AccurateRip database Copy OK
Track 3
Filename F:\EAC Rips\Roosevelt Collier - Exit 16 (2018) [FLAC]\03 - Make It Alright.wav
Peak level 100.0 % Extraction speed 3.9 X Track quality 100.0 % Test CRC 0340A7AD Copy CRC 0340A7AD Track not present in AccurateRip database Copy OK
Track 4
Filename F:\EAC Rips\Roosevelt Collier - Exit 16 (2018) [FLAC]\04 - Exit 16.wav
Peak level 100.0 % Extraction speed 4.1 X Track quality 100.0 % Test CRC 4D465DA2 Copy CRC 4D465DA2 Track not present in AccurateRip database Copy OK
Track 5
Filename F:\EAC Rips\Roosevelt Collier - Exit 16 (2018) [FLAC]\05 - That Could've Been Bad.wav
Peak level 97.5 % Extraction speed 4.6 X Track quality 100.0 % Test CRC AF617433 Copy CRC AF617433 Track not present in AccurateRip database Copy OK
Track 6
Filename F:\EAC Rips\Roosevelt Collier - Exit 16 (2018) [FLAC]\06 - Supernatural Encounters.wav
Peak level 98.1 % Extraction speed 4.5 X Track quality 100.0 % Test CRC E673A65D Copy CRC E673A65D Track not present in AccurateRip database Copy OK
Track 7
Filename F:\EAC Rips\Roosevelt Collier - Exit 16 (2018) [FLAC]\07 - Spike.wav
Peak level 100.0 % Extraction speed 5.1 X Track quality 100.0 % Test CRC E38452FC Copy CRC E38452FC Track not present in AccurateRip database Copy OK
Track 8
Filename F:\EAC Rips\Roosevelt Collier - Exit 16 (2018) [FLAC]\08 - Shuffle (Bonus Track).wav
Peak level 99.2 % Extraction speed 5.4 X Track quality 100.0 % Test CRC AD4DE5F3 Copy CRC AD4DE5F3 Track not present in AccurateRip database Copy OK
Track 9
Filename F:\EAC Rips\Roosevelt Collier - Exit 16 (2018) [FLAC]\09 - Tailor Made (Bonus Track).wav
Peak level 99.9 % Extraction speed 5.3 X Track quality 100.0 % Test CRC 9262CFA1 Copy CRC 9262CFA1 Track not present in AccurateRip database Copy OK
Track 10
Filename F:\EAC Rips\Roosevelt Collier - Exit 16 (2018) [FLAC]\10 - Spike (Full Length - Bonus Track).wav
Peak level 100.0 % Extraction speed 5.3 X Track quality 99.9 % Test CRC D9AEFD70 Copy CRC D9AEFD70 Track not present in AccurateRip database Copy OK
None of the tracks are present in the AccurateRip database
No errors occurred
End of status report
---- CUETools DB Plugin V2.1.6
[CTDB TOCID: xn4kRZRNoKHzym5KvM5c3R5aJlo-] disk not present in databaseSubmit result: xn4kRZRNoKHzym5KvM5c3R5aJlo- has been uploaded
==== Log checksum 44A76C525F6D5186336B437C1B8EBDEC06248D1051489855A3809EDFB584BD9F ====

Содержание индексной карты (.CUE)

REM DATE 2018REM DISCID 9610580AREM COMMENT "ExactAudioCopy v1.3"FILE "01 - Sun Up Sun Down.wav" WAVE  TRACK 01 AUDIO    INDEX 01 00:00:00FILE "02 - Happy Feet.wav" WAVE  TRACK 02 AUDIO    INDEX 01 00:00:00FILE "03 - Make It Alright.wav" WAVE  TRACK 03 AUDIO    INDEX 01 00:00:00FILE "04 - Exit 16.wav" WAVE  TRACK 04 AUDIO    INDEX 01 00:00:00FILE "05 - That Could've Been Bad.wav" WAVE  TRACK 05 AUDIO    INDEX 01 00:00:00FILE "06 - Supernatural Encounters.wav" WAVE  TRACK 06 AUDIO    INDEX 01 00:00:00FILE "07 - Spike.wav" WAVE  TRACK 07 AUDIO    INDEX 01 00:00:00FILE "08 - Shuffle (Bonus Track).wav" WAVE  TRACK 08 AUDIO    INDEX 01 00:00:00FILE "09 - Tailor Made (Bonus Track).wav" WAVE  TRACK 09 AUDIO    INDEX 01 00:00:00FILE "10 - Spike (Full Length - Bonus Track).wav" WAVE  TRACK 10 AUDIO    INDEX 01 00:00:00

Об альбоме

As far as record companies go, there are a select few that I really pay attention to these days — most current bands produce on their own or they have a small, independent label. One record company that I thoroughly enjoy is Ground-up Records. Founded by Michael League, bassist/composer/bandleader of the group Snarky Puppy, this record label releases music by Snarky Puppy, Brazilian guitarist Charlie Hunter, singer Becca Stevens and more. The most recent record from the thriving jazz/funk/soul label is entitled “Exit 16” by Roosevelt Collier, one of the foremost pedal-steel guitarists in the world. Collier is a longtime veteran of the blues and gospel scenes. I was astonished to learn that this is his debut solo album, which was inspired by League’s offer to produce it for him.
“Exit 16” is a swampy, bluesy and funky jumble of music. The first track, “Sun Up, Sun Down,” is a thrilling and spiritual opener. Starting with a fiery blast of slide guitar, it is an old-school funk song, featuring Collier with League on bass, Snarky Puppy alums Bobby Sparks, Jr. on keys — incidentally, Sparks played at Lawrence’s Jazz Weekend, playing in Liz Wright’s band — and JT Thomas on the drums. The next tune, “Happy Feet,” features a fast funk groove, with Thomas pounding the drums, accompanied by clavinet and organ blasts from Sparks. Colliers playing on this song is reminiscent of very classic funk guitar; it is made even more impressive that he’s strumming such quick chords on a slide guitar. Near the end, Thomas takes a quick drum solo to show off his percussion chops.
The title track is much more rock influenced than some of the previous tracks. Collier’s wah-guitar soars over League’s heavy bass and Sparks’ organ; the song contains several massive guitar screams that build intensity throughout. Other highlights include “Spike,” a Jimi Hendrix-esque funk track that starts with an up-tempo guitar run that wouldn’t sound out of place in a Van Halen song. After its guitar introduction, this track is much more of a slow jam, with fuzzed-out guitar throughout. Collier throws on a wah pedal halfway through for good measure, which makes him sound even more like Hendrix. Overall, it is a tremendous first effort from a masterful guitarist.
~Carl Johnson

Состав

Roosevelt Collier - Pedal Steel Guitar
Michael League - Bass Guitar
Bobby Sparks - Keyboards
Jason “JT” Thomas - Drums
Вы не можете начинать темы
Вы не можете отвечать на сообщения
Вы не можете редактировать свои сообщения
Вы не можете удалять свои сообщения
Вы не можете голосовать в опросах
Вы не можете прикреплять файлы к сообщениям
Вы можете скачивать файлы
!ВНИМАНИЕ!

Сайт не предоставляет электронные версии произведений, а занимается лишь коллекционированием и каталогизацией ссылок, присылаемых и публикуемых на форуме нашими читателями. Если вы являетесь правообладателем какого-либо представленного материала и не желаете, чтобы ссылка на него находилась в нашем каталоге, свяжитесь с нами, и мы незамедлительно удалим ее. Файлы для обмена на трекере предоставлены пользователями сайта, и администрация не несет ответственности за их содержание. Просьба не заливать файлы, защищенные авторскими правами, а также файлы нелегального содержания!

Искали программы, игры, дополнения, музыка mp3, аниме, аудио книги, журналы? Добро пожаловать на свободный торрент трекер Torrents, у нас можно скачать бесплатно, без смс и регистрации и прочих ограничений лучшие, отборные сборки программ, игр. Скачать торрентом не составит труда даже не опытному пользователю. Раздачи ежедневно обновляются, только лучшие и качественные раздачи, подробные описания и скриншоты. Огромная коллекция программ для работы со звуком, графикой, дизайном, а так же множество плагинов и инструментов к ним с подробной инструкцией и рекомендациями. Прошивки для навигаторов, карты. Разнообразные игры, для Windows, Linux. В коллекцие есть и старые игры любых жанров, Rpg, Action, Shooter, strategy Множество дополнений, модификаций, сценариев для популярных игр в жанре экш, рпг, гонки, стратегии, логические игры. Множество аддонов и сценариев для Microsoft Flight Simulator Большая коллекция книг, учебников. Если нет возможности купить печатное издание - смело скачивайте цифровую версию книги или, быть может, журнала. Не любите читать - можно загрузить бесплатно аудикнигу. Для веб дизайнеров и программистов так же найдется множество специализированного софта, таких как: редакторы с подсветкой, среды программирования, компоненты, системы управления базами данных, разнообразные скрипты и шаблоны. Не так давно у нас появился материал для автолюбителей и владельцев мото - оригинальные и неоригинальные каталоги запчастей, книги и журналы по ремонту и обслуживанию, видеоуроки, статьи по чип тюнингу, прошивкам. Процедура получения контента элементарная, достаточно просто скачать торрент файл и добавить его в загрузку в вашем торрент клиенте. Если у вас нет специального торрент клиента, вы можете его скачать у нас.