(Neo-Classical Progressive Power Metal/Instrumental) Bob Katsionis (Firewind, Outloud) - Дискография 2002-2012 (4 альбома), FLAC (image+.cue), lossless 

Цитировать
Дискография 2002-2012Жанр: Neo-Сlassical Progressive Power Metal/Instrumental
Страны-производители дисков: Greece, Japan
Страна: Greece
Аудиокодек: FLAC (*.flac)
Тип рипа: image+.cue
Битрейт аудио: lossless
Продолжительность: 3 часа 40 минут
Источник (релизер): собственные рипы с личных CD
Наличие сканов в содержимом раздачи: да

2002 – Turn Of My Century (Japan, Toshiba-EMI, TOCP-67536)

Продолжительность: 50:41
Треклист:
1. Turn Of My Century - 3:02
2. Planeterium - 4:30
3. Cosmic - 3:50
4. The Omega Invasion - 3:42
5. Windows To The World - 4:10
6. My Strange Girl - 4:30
7. Cold Pale Skin - 3:37
8. Scary Groovie - 2:58
9. The World Science - 3:28
10. Enemy's Adagio - 2:51
11. Flight Of The Pink Dragon - 3:18
12. Carnival Oriental - 4:03
13. Face The Undead - 2:47
14. Exploration - 6:20
Состав группы:
Bob Katsionis - keyboards and 7-string guitars
Jimmy B - bass
Fotis Bernardo - drums
Европейское издание с 3 дополнительными треками

Лог создания рипа

Exact Audio Copy V1.0 beta 3 from 29. August 2011
EAC extraction logfile from 4. January 2014, 17:51
Bob Katsionis / Turn Of My Century
Used drive : SlimtypeDVD A DS8A5SH Adapter: 0 ID: 1
Read mode : SecureUtilize accurate stream : YesDefeat audio cache : YesMake use of C2 pointers : No
Read offset correction : 6Overread into Lead-In and Lead-Out : NoFill up missing offset samples with silence : YesDelete leading and trailing silent blocks : NoNull samples used in CRC calculations : YesUsed interface : Native Win32 interface for Win NT & 2000
Used output format : User Defined EncoderSelected bitrate : 320 kBit/sQuality : HighAdd ID3 tag : NoCommand line compressor : C:\Program Files (x86)\Exact Audio Copy\Flac\flac.exeAdditional command line options : -V -8 -T "Date=%year%" -T "Genre=%genre%" %source%
TOC of the extracted CD
Track | Start | Length | Start sector | End sector --------------------------------------------------------- 1 | 0:00.00 | 3:02.00 | 0 | 13649 2 | 3:02.00 | 4:30.45 | 13650 | 33944 3 | 7:32.45 | 3:50.65 | 33945 | 51259 4 | 11:23.35 | 3:42.27 | 51260 | 67936 5 | 15:05.62 | 4:10.23 | 67937 | 86709 6 | 19:16.10 | 4:30.47 | 86710 | 107006 7 | 23:46.57 | 3:37.48 | 107007 | 123329 8 | 27:24.30 | 2:58.20 | 123330 | 136699 9 | 30:22.50 | 3:28.35 | 136700 | 152334 10 | 33:51.10 | 2:51.30 | 152335 | 165189 11 | 36:42.40 | 3:18.32 | 165190 | 180071 12 | 40:00.72 | 4:03.25 | 180072 | 198321 13 | 44:04.22 | 2:47.70 | 198322 | 210916 14 | 46:52.17 | 3:48.33 | 210917 | 228049 15 | 53:12.50 | 13:02.62 | 239450 | 298161
Range status and errors
Selected range
Filename D:\My Music\Bob Katsionis - Lossless Discography\Bob Katsionis - 2002 Turn Of My Century\Bob Katsionis - Turn Of My Century.wav
Peak level 99.9 % Extraction speed 1.8 X Range quality 100.0 % Test CRC 72A37AF4 Copy CRC 72A37AF4 Copy OK
No errors occurred
AccurateRip summary
Track 1 not present in databaseTrack 2 not present in databaseTrack 3 not present in databaseTrack 4 not present in databaseTrack 5 not present in databaseTrack 6 not present in databaseTrack 7 not present in databaseTrack 8 not present in databaseTrack 9 not present in databaseTrack 10 not present in databaseTrack 11 not present in databaseTrack 12 not present in databaseTrack 13 not present in databaseTrack 14 not present in database
None of the tracks are present in the AccurateRip database
End of status report
==== Log checksum 841721E21DD96B5B081AD0283CB82B3EFE60AECDC095E3A90AE3252BFC5717CF ====

2004 – Imaginary Force (Japan, Toshiba-EMI, TOCP-67429)

Продолжительность: 53:03
Треклист:
1. The Imaginary Force - 4:09
2. March Of The Spirits - 3:56
3. Sing For The Day - 4:37
4. Galaxy - 3:04
5. Sudden Death - 3:11
6. Bird's Eye View - 3:29
7. Is It Me Or The Weather? - 4:16
8. All My Naked Hopes - 4:05
9. Separated - 4:44
The Trilogy Of Lust
10. St.Pervert - 3:56
11. Tsifteteli (overture 1821) - 5:54
12. Ouzo! - 3:53
bonus track for Japan:
13. Pic-nic In Mars (preproduction demo) - 6:15
Состав группы:
Bob Katsionis - all keyboards and 7-string guitars
Stavros Giannakopoulos - bass
Fotis Bernardo - drums
гости:
Theodori Ziras - guitar solo 2 on "Ouzo!"
Alex Flouros (Seduce The Heaven) - guitar solo 1 on "Ouzo!"
Thomas Panagiotou - toumbeleki on "Tsifteteli"
DJ Nikos_33rpm - vinyl scratches on "Tsifteteli"

Лог создания рипа

Exact Audio Copy V1.0 beta 3 from 29. August 2011
EAC extraction logfile from 4. January 2014, 18:59
Bob Katsionis / Imaginary Force
Used drive : SlimtypeDVD A DS8A5SH Adapter: 0 ID: 1
Read mode : SecureUtilize accurate stream : YesDefeat audio cache : YesMake use of C2 pointers : No
Read offset correction : 6Overread into Lead-In and Lead-Out : NoFill up missing offset samples with silence : YesDelete leading and trailing silent blocks : NoNull samples used in CRC calculations : YesUsed interface : Native Win32 interface for Win NT & 2000
Used output format : User Defined EncoderSelected bitrate : 320 kBit/sQuality : HighAdd ID3 tag : NoCommand line compressor : C:\Program Files (x86)\Exact Audio Copy\Flac\flac.exeAdditional command line options : -V -8 -T "Date=%year%" -T "Genre=%genre%" %source%
TOC of the extracted CD
Track | Start | Length | Start sector | End sector --------------------------------------------------------- 1 | 0:00.00 | 4:09.62 | 0 | 18736 2 | 4:09.62 | 3:56.35 | 18737 | 36471 3 | 8:06.22 | 4:37.08 | 36472 | 57254 4 | 12:43.30 | 3:04.50 | 57255 | 71104 5 | 15:48.05 | 3:11.50 | 71105 | 85479 6 | 18:59.55 | 3:29.50 | 85480 | 101204 7 | 22:29.30 | 4:16.42 | 101205 | 120446 8 | 26:45.72 | 4:05.45 | 120447 | 138866 9 | 30:51.42 | 4:44.08 | 138867 | 160174 10 | 35:35.50 | 3:56.07 | 160175 | 177881 11 | 39:31.57 | 5:54.00 | 177882 | 204431 12 | 45:25.57 | 3:53.40 | 204432 | 221946 13 | 49:19.22 | 3:43.73 | 221947 | 238744 14 | 55:35.20 | 5:26.38 | 250145 | 274632
Range status and errors
Selected range
Filename D:\My Music\Bob Katsionis - Lossless Discography\Bob Katsionis - 2004 Imaginary Force\Bob Katsionis - Imaginary Force.wav
Peak level 100.0 % Extraction speed 1.8 X Range quality 100.0 % Test CRC A4A4CE49 Copy CRC A4A4CE49 Copy OK
No errors occurred
AccurateRip summary
Track 1 not present in databaseTrack 2 not present in databaseTrack 3 not present in databaseTrack 4 not present in databaseTrack 5 not present in databaseTrack 6 not present in databaseTrack 7 not present in databaseTrack 8 not present in databaseTrack 9 not present in databaseTrack 10 not present in databaseTrack 11 not present in databaseTrack 12 not present in databaseTrack 13 not present in database
None of the tracks are present in the AccurateRip database
End of status report
==== Log checksum 293D64A52CE46EA4E6F85B0FB2EE672A520627B51EF0664031B49494497B83DD ====

2008 – Noemon (Greece, PVGroup)

Продолжительность: 46:23
Треклист:
1. Noemon - 4:04
2. Birth Of The Sun - 3:58
3. Tears Of Alice - 3:32
4. Soukse! - 3:53
5. Delirium In Santiago - 3:34
6. A Melody Like You - 3:38
7. The Nightrager- 3:14
8. Anthenian Light - 4:32
9. Milestone - 3:41
10. The Wounded Chords - 4:08
11. Apocalypse - 3:06
12. SpongeiBob vs iBob The Builder - 5:03
Состав группы:
Bob Katsionis - all keyboards and 7-string guitars
George Xyndas - bass
Stelios Pavlou - drums
гости:
Jeff Waters (Annihilator) - guitar solo on "Tears Of Alice"
Marcel Coenen (Sun Caged) - guitar solo on "Soukse!" and "Anthenian Light"
Theodori Ziras - guitar solo on "Apoclypse"
Lars Erik Mattsson - guitar solo on "Delirium In Santiago"

Лог создания рипа

Exact Audio Copy V1.0 beta 3 from 29. August 2011
EAC extraction logfile from 4. January 2014, 16:14
Bob Katsionis / Noemon
Used drive : SlimtypeDVD A DS8A5SH Adapter: 0 ID: 1
Read mode : SecureUtilize accurate stream : YesDefeat audio cache : YesMake use of C2 pointers : No
Read offset correction : 6Overread into Lead-In and Lead-Out : NoFill up missing offset samples with silence : YesDelete leading and trailing silent blocks : NoNull samples used in CRC calculations : YesUsed interface : Native Win32 interface for Win NT & 2000
Used output format : User Defined EncoderSelected bitrate : 320 kBit/sQuality : HighAdd ID3 tag : NoCommand line compressor : C:\Program Files (x86)\Exact Audio Copy\Flac\flac.exeAdditional command line options : -V -8 -T "Date=%year%" -T "Genre=%genre%" %source%
TOC of the extracted CD
Track | Start | Length | Start sector | End sector --------------------------------------------------------- 1 | 0:00.00 | 4:04.03 | 0 | 18302 2 | 4:04.03 | 3:57.57 | 18303 | 36134 3 | 8:01.60 | 3:31.56 | 36135 | 52015 4 | 11:33.41 | 3:52.61 | 52016 | 69476 5 | 15:26.27 | 3:34.00 | 69477 | 85526 6 | 19:00.27 | 3:38.25 | 85527 | 101901 7 | 22:38.52 | 3:14.37 | 101902 | 116488 8 | 25:53.14 | 4:32.35 | 116489 | 136923 9 | 30:25.49 | 3:40.61 | 136924 | 153484 10 | 34:06.35 | 4:07.53 | 153485 | 172062 11 | 38:14.13 | 3:05.62 | 172063 | 185999 12 | 41:20.00 | 5:02.50 | 186000 | 208699
Range status and errors
Selected range
Filename D:\My Music\Bob Katsionis - Lossless Discography\Bob Katsionis - 2008 Noemon\Bob Katsionis - Noemon.wav
Peak level 100.0 % Extraction speed 1.8 X Range quality 99.9 % Test CRC 3F516889 Copy CRC 30D0187C Copy OK
No errors occurred
AccurateRip summary
Track 1 not present in databaseTrack 2 not present in databaseTrack 3 not present in databaseTrack 4 not present in databaseTrack 5 not present in databaseTrack 6 not present in databaseTrack 7 not present in databaseTrack 8 not present in databaseTrack 9 not present in databaseTrack 10 not present in databaseTrack 11 not present in databaseTrack 12 not present in database
None of the tracks are present in the AccurateRip database
End of status report
==== Log checksum B4CE58AA5E76EE7CD03D553EA1CADE339A6940DCD647965838E3B5E830BB72A0 ====

2012 – Rest In Keys (Greece, PVGroup, PVG002-12)

Продолжительность: 69:46
Треклист:
1. On My Own (vocals Peter Ellis) - 4:55
2. Gravity Dance - 4:15
3. Game of Drones - 4:18
4. Epirus Rising - 4:12
5. In My Little Big Planet - 3:26
6. Another World (vocals Maxi Nil) - 5:19
7. Poseidon's Rage - 5:33
8. Falling from the Edge of Space - 4:42
9. Rendez-Vous in the Sky (vocals Liv Kristine) - 6:24
10. Rest in Keys - 6:38
11. The Four Seasons of Love - 12:00
i. Two Lover's Spring
ii. Our First Summer
iii. September's Melancholy
iv. Another Lonely Winter
bonus tracks:
12. Being Me - 4:29
13. Dawn of Nostalgia - 3:30
Состав группы:
Bob Katsionis - all instruments
Kostas Milonas - drums
гости:
Gary Wehrkamp (Shadow Gallery) - guitar solo on "Gravity Dance"
Gus G. (Firewind, Ozzy Osbourne) - guitar solo on "Poseidon's Rage"
Christopher Amott (ex-Arch Enemy) - guitar solo on "Game of Drones"

Лог создания рипа

Exact Audio Copy V1.0 beta 3 from 29. August 2011
EAC extraction logfile from 4. January 2014, 12:14
Bob Katsionis / Rest In Keys
Used drive : SlimtypeDVD A DS8A5SH Adapter: 0 ID: 1
Read mode : SecureUtilize accurate stream : YesDefeat audio cache : YesMake use of C2 pointers : No
Read offset correction : 6Overread into Lead-In and Lead-Out : NoFill up missing offset samples with silence : YesDelete leading and trailing silent blocks : NoNull samples used in CRC calculations : YesUsed interface : Native Win32 interface for Win NT & 2000
Used output format : User Defined EncoderSelected bitrate : 320 kBit/sQuality : HighAdd ID3 tag : NoCommand line compressor : C:\Program Files (x86)\Exact Audio Copy\Flac\flac.exeAdditional command line options : -V -8 -T "Date=%year%" -T "Genre=%genre%" %source%
TOC of the extracted CD
Track | Start | Length | Start sector | End sector --------------------------------------------------------- 1 | 0:00.00 | 4:55.16 | 0 | 22140 2 | 4:55.16 | 4:15.02 | 22141 | 41267 3 | 9:10.18 | 4:18.66 | 41268 | 60683 4 | 13:29.09 | 4:12.49 | 60684 | 79632 5 | 17:41.58 | 3:26.17 | 79633 | 95099 6 | 21:08.00 | 5:19.49 | 95100 | 119073 7 | 26:27.49 | 5:33.65 | 119074 | 144113 8 | 32:01.39 | 4:42.00 | 144114 | 165263 9 | 36:43.39 | 6:24.43 | 165264 | 194106 10 | 43:08.07 | 6:38.05 | 194107 | 223961 11 | 49:46.12 | 12:00.30 | 223962 | 277991 12 | 61:46.42 | 4:29.20 | 277992 | 298186 13 | 66:15.62 | 3:30.17 | 298187 | 313953
Range status and errors
Selected range
Filename D:\My Music\Bob Katsionis - Lossless Discography\Bob Katsionis - 2012 Rest In Keys\Bob Katsionis - Rest In Keys.wav
Peak level 100.0 % Extraction speed 3.1 X Range quality 100.0 % Test CRC 6C2F680A Copy CRC 6C2F680A Copy OK
No errors occurred
AccurateRip summary
Track 1 not present in databaseTrack 2 not present in databaseTrack 3 not present in databaseTrack 4 not present in databaseTrack 5 not present in databaseTrack 6 not present in databaseTrack 7 not present in databaseTrack 8 not present in databaseTrack 9 not present in databaseTrack 10 not present in databaseTrack 11 not present in databaseTrack 12 not present in databaseTrack 13 not present in database
None of the tracks are present in the AccurateRip database
End of status report
==== Log checksum 8C5D0D06F5510A5A73797E02453C27D8AE6238C0DD0A096EDF9F121FBD0CB249 ====
Outloud - Дискография 2009-2014 (4 альбомa), FLAC (image+.cue), lossless

Мои Раздачи Дискографий

(Progressive Metal/Hard Rock) Royal Нunt - Дискография 1992-2013 (Японские издания, 21 альбом)
(Neo-Сlassical Progressive Power Metal/Instrumental) Bob Katsionis (Firewind, Outloud) - Дискография 2002-2012 (4 альбома)
(Progressive Power Metal) Angra - Дискография 1993-2013 (Японские издания, 16 альбомов)
(Progressive Power Metal) Theocracy - Дискография 2003-2011 (3 альбома)
(Melodic Progressive Power Metal) Platitude - Дискография 2003-2005 (Японские издания, 3 альбома)
(Melodic Heavy Metal) Fools Faith (ex-Aftermath) - Дискография 2007-2011 (2 альбома)
(Melodic Heavy Metal) Machine Men - Дискография 2004-2007 (Японские издания, 3 альбома)
(Melodic Heavy Metal) Winterborn - Дискография 2006-2008 (Японские издания, 2 альбома)
(Melodic Heavy/Power Metal) Silent Force - Дискография 2000-2013 (Японские издания, 5 альбомов)
(Melodic Modern Heavy / Death Metal) Amaranthe - Дискография 2011-2013 (Японские издания, 2 альбома)
(Melodic Hard Rock/Metal) Pink Cream 69 - Дискография 1989 - 2013 (Японские издания, 18 CD)
(Melodic Hard Rock/Glam) The Poodles - Дискография 2006-2013 (Японские издания, 5 альбомов)
(Melodic Hard Rock/Glam) Casablanca - Дискография 2012-2013 (2 альбома)
(Melodic Hard Rock/AOR) Heartland - Дискография 1991-2011 (Японские издания, 14 CD)
(Melodic Hard Rock/AOR) FM - Дискография 1986-2013 (Японские и английские издания, 14 альбомов, 18 CD)
(Melodic Hard Rock/AOR) Ten - Дискография 1996-2012 (Японские издания, 16 альбомов)
(Melodic Hard Rock/AOR) Gary Hughes (Ten) - Дискография 1990-2007 (Японские издания, 7 CD)
(Melodic Hard Rock/AOR) Last Autumn's Dream - Дискография 2003-2013 (Японские издания, 13 альбомов)
(Melodic Hard Rock/AOR) Mastedon (John Elefante, ex-Kansas) - Дискография 1989-2009 (3 альбома)
(Melodic Hard Rock/AOR) Sunstorm (Joe Lynn Turner) - Японская Дискография 2006-2012 (3 альбома)
(Melodic Hard Rock/AOR) Bob Catley (Magnum) - Дискография 1998-2008 (Японские издания, 7 альбомов)
(Melodic Hard Rock/AOR) Newman - Дискография 1997 - 2013 (11 альбомов)
(Melodic Hard Rock/AOR) Degreed - Дискография 2010-2013 (Японские издания, 2 альбома)
(Melodic Hard Rock) Free Spirit - Дискография 2009-2014 (2 альбома)
(Melodic Hard Rock) Lover Under Cover (Mikael Erlandsson) - Дискография 2012-2014 (Японские издания, 2 альбома)
(Melodic Hard Rock) Badhoven - Дискография 2001-2013 (3 альбома)
(Melodic Hard Rock) Emerald Rain - Дискография 1997-2005 (Японские издания, 6 альбомов)
(Melodic Hard Rock) W.E.T. (Work Of Art / Eclipse / Talisman) - Дискография 2009-2014 (3 альбома)
(Melodic Hard Rock) Fortune (pre-The Poodles, Clockwise) - Дискография 1993-1995 (Японские издания, 3 альбома)
(Melodic Hard Rock) Rydell & Quick - Дискография 2006-2012 (2 альбома)
(Melodic Hard Rock) Valentine (Hugo) - Дискография 1990-2008 (2 альбома)
(Melodic Hard Rock) Outloud - Дискография 2009-2014 (4 альбомa)
(Melodic Hard Rock) House Of Lords - Дискография 1988-2014 (Японские издания, 9 альбомов)
(Melodic Hard Rock) Fair Warning - Дискография 1992-2013 (Японские издания, 16 альбомов)
(Melodic Hard Rock) Zeno (pre-Fair Warning) - Дискография 1986-2006 (Японские издания, 5 альбомов)
(Melodic Hard Rock) Dreamtide (ex-Fair Warning) - Дискография 2001-2008 (Японские издания, 3 альбома + 1EP)
(Hard Rock) Soul Doctor (ex-Fair Warning, Bonfire) - Дискография 2001-2009 (Японские издания, 6 альбомов)
(Hard Rock) Doogie White & La Paz - Дискография 2012-2013 (2 альбома)
(Hard Rock) Brazen Abbot (Nikolo Kotzev' Nostradamus) - Дискография 1995-2005 (Японские издания, 7 альбомов)
(Hard Rock) Mother's Army (Joe Lynn Turner) - Дискография 1993-1998 (Японские издания, 3 альбома)
(Melodic Rock) Mikael Erlandsson (Last Autumn's Dream) - Дискография 1995-2002 (Японские издания, 5 альбомов)
(Melodic Rock/AOR) Think Out Loud (ex-Player) - Дискография 1988-1997 (2 альбома)
(Melodic Rock/AOR) Fergie Frederiksen (ex-Toto, Le Roux) - Дискография 1995 - 2013 (Японские издания, 5 альбомов)
(Melodic Rock/AOR) Lionville - Дискография 2011-2012 (Японские издания, 2 альбома)
(Melodic Rock/AOR) Pride Of Lions - Дискография 2003-2012 (Японские издания, 5 альбомов)
(Melodic Rock/AOR) Houston - Дискография 2010 - 2013 (3 альбома)
(Melodic Rock/AOR) Güru - Дискография 2010-2013 (2 альбома)
(Melodic Rock/AOR) Alliance (ex-Boston, Night Ranger) - Дискография 1996-2008 (4 альбома)
(Melodic Rock/AOR) Hugo (ex-Valentine, Open Skyz) - Дискография 1997-2004 (Японские издания, 3 альбома)
(Melodic Rock/AOR) Chasing Violets - Дискография 2012-2013 (2 альбома)
(Melodic Rock/AOR) Virginia Wolf (Heartland, Bonham) - Дискография 1986-1987 (2 альбома)
(Melodic Rock/AOR/CCM) White Heart - Дискография 1982-2000 (14 альбомов)
(Westcoast/AOR) State Cows - Дискография 2010-2013 (Японские издания, 2 альбома)
(Westcoast/AOR) Dakota - Дискография 1978-2003 (11 CD)
(Westcoast/AOR) Sven Larsson (ex-Street Talk) - Дискография 2010-2012 (Японские издания, 2 альбома)
(Westcoast/AOR) Pages (pre-Mr.Mister) - Дискография 1978-1981 (3 альбома)
(Westcoast/CCM/Progressive Rock) John Elefante (Mastedon, ex-Kansas) - Дискография 1995-2013 (4 альбома)
(Progressive/Classic Rock) December People (Robert Berry) - Дискография 2001-2013 (3 альбома)
(Eclectic Prog) A.C.T - Дискография 1999-2014 (Японские издания, 5 альбомов)
(Crossover Prog) Fish On Friday - Дискография 2010-2012 (2 альбома)
(Classic Rock) Chicago - Дискография 1969-2011 (Японские издания, 38 альбомов)
(Classic Rock) Blackjack - Дискография 1979-1980 (2 альбома)
(Classic Rock) Billy Thorpe - Дискография 1974-2010 (8 альбомов)
(Rock) Secret Powers - Дискография 2008-2011 (4 альбома)
Вы не можете начинать темы
Вы не можете отвечать на сообщения
Вы не можете редактировать свои сообщения
Вы не можете удалять свои сообщения
Вы не можете голосовать в опросах
Вы не можете прикреплять файлы к сообщениям
Вы можете скачивать файлы
!ВНИМАНИЕ!

Сайт не предоставляет электронные версии произведений, а занимается лишь коллекционированием и каталогизацией ссылок, присылаемых и публикуемых на форуме нашими читателями. Если вы являетесь правообладателем какого-либо представленного материала и не желаете, чтобы ссылка на него находилась в нашем каталоге, свяжитесь с нами, и мы незамедлительно удалим ее. Файлы для обмена на трекере предоставлены пользователями сайта, и администрация не несет ответственности за их содержание. Просьба не заливать файлы, защищенные авторскими правами, а также файлы нелегального содержания!

Искали программы, игры, дополнения, музыка mp3, аниме, аудио книги, журналы? Добро пожаловать на свободный торрент трекер Torrents, у нас можно скачать бесплатно, без смс и регистрации и прочих ограничений лучшие, отборные сборки программ, игр. Скачать торрентом не составит труда даже не опытному пользователю. Раздачи ежедневно обновляются, только лучшие и качественные раздачи, подробные описания и скриншоты. Огромная коллекция программ для работы со звуком, графикой, дизайном, а так же множество плагинов и инструментов к ним с подробной инструкцией и рекомендациями. Прошивки для навигаторов, карты. Разнообразные игры, для Windows, Linux. В коллекцие есть и старые игры любых жанров, Rpg, Action, Shooter, strategy Множество дополнений, модификаций, сценариев для популярных игр в жанре экш, рпг, гонки, стратегии, логические игры. Множество аддонов и сценариев для Microsoft Flight Simulator Большая коллекция книг, учебников. Если нет возможности купить печатное издание - смело скачивайте цифровую версию книги или, быть может, журнала. Не любите читать - можно загрузить бесплатно аудикнигу. Для веб дизайнеров и программистов так же найдется множество специализированного софта, таких как: редакторы с подсветкой, среды программирования, компоненты, системы управления базами данных, разнообразные скрипты и шаблоны. Не так давно у нас появился материал для автолюбителей и владельцев мото - оригинальные и неоригинальные каталоги запчастей, книги и журналы по ремонту и обслуживанию, видеоуроки, статьи по чип тюнингу, прошивкам. Процедура получения контента элементарная, достаточно просто скачать торрент файл и добавить его в загрузку в вашем торрент клиенте. Если у вас нет специального торрент клиента, вы можете его скачать у нас.