(Instrumental Guitar Rock) [CD] Joe Satriani - What Happens Next - 2018, FLAC (tracks+.cue), lossless 

Цитировать
Joe Satriani / What Happens Next
Жанр: Instrumental Guitar Rock
Носитель: CD
Год издания: 2018
Издатель (лейбл): Legacy
Номер по каталогу: 19075802312
Страна исполнителя (группы): US
Аудиокодек: FLAC (*.flac)
Тип рипа: tracks+.cue
Битрейт аудио: lossless
Продолжительность: 00:51:24
Источник (релизер): Jiboom
Наличие сканов в содержимом раздачи: нет
Треклист:
01. Energy (03:28)
02. Catbot (03:39)
03. Thunder High on the Mountain (04:47)
04. Cherry Blossoms (04:29)
05. Righteous (03:35)
06. Smooth Soul (03:51)
07. Headrush (03:35)
08. Looper (03:44)
09. What Happens Next (04:24)
10. Super Funky Badass (07:36)
11. Invisible (04:11)
12. Forever and Ever (04:05)

Лог создания рипа

Exact Audio Copy V1.3 from 2. September 2016
EAC extraction logfile from 12. January 2018, 13:25
Joe Satriani / What Happens Next
Used drive : ATAPI iHAS124 F Adapter: 1 ID: 0
Read mode : SecureUtilize accurate stream : YesDefeat audio cache : YesMake use of C2 pointers : No
Read offset correction : 6Overread into Lead-In and Lead-Out : NoFill up missing offset samples with silence : YesDelete leading and trailing silent blocks : NoNull samples used in CRC calculations : YesUsed interface : Native Win32 interface for Win NT & 2000Gap handling : Appended to previous track
Used output format : User Defined EncoderSelected bitrate : 1024 kBit/sQuality : HighAdd ID3 tag : NoCommand line compressor : C:\Program Files (x86)\Exact Audio Copy\FLAC\FLAC.EXEAdditional command line options : -8 -e -p -V -T "ARTIST=%artist%" -T "TITLE=%title%" -T "ALBUM=%albumtitle%" -T "DATE=%year%" -T "TRACKNUMBER=%tracknr%" -T "GENRE=%genre%" -T "PERFORMER=%albuminterpret%" -T "COMPOSER=%composer%" %haslyrics%--tag-from-file=LYRICS="%lyricsfile%"%haslyrics% -T "ALBUMARTIST=%albumartist%" -T "DISCNUMBER=%cdnumber%" -T "TOTALDISCS=%totalcds%" -T "TOTALTRACKS=%numtracks%" -T "COMMENT=%comment%" %source% -o %dest%
TOC of the extracted CD
Track | Start | Length | Start sector | End sector --------------------------------------------------------- 1 | 0:00.00 | 3:28.42 | 0 | 15641 2 | 3:28.42 | 3:38.49 | 15642 | 32040 3 | 7:07.16 | 4:46.69 | 32041 | 53559 4 | 11:54.10 | 4:29.10 | 53560 | 73744 5 | 16:23.20 | 3:34.72 | 73745 | 89866 6 | 19:58.17 | 3:51.38 | 89867 | 107229 7 | 23:49.55 | 3:35.07 | 107230 | 123361 8 | 27:24.62 | 3:43.67 | 123362 | 140153 9 | 31:08.54 | 4:24.28 | 140154 | 159981 10 | 35:33.07 | 7:35.60 | 159982 | 194166 11 | 43:08.67 | 4:11.35 | 194167 | 213026 12 | 47:20.27 | 4:06.62 | 213027 | 231538
Track 1
Filename D:\Joe Satriani (2018) - What Happens Next {Legacy 19075802312} [FLAC]\01 - Energy.wav
Pre-gap length 0:00:02.00
Peak level 100.0 % Extraction speed 5.0 X Track quality 100.0 % Test CRC 1A6320F5 Copy CRC 1A6320F5 Track not present in AccurateRip database Copy OK
Track 2
Filename D:\Joe Satriani (2018) - What Happens Next {Legacy 19075802312} [FLAC]\02 - Catbot.wav
Peak level 100.0 % Extraction speed 5.6 X Track quality 100.0 % Test CRC 989385F6 Copy CRC 989385F6 Track not present in AccurateRip database Copy OK
Track 3
Filename D:\Joe Satriani (2018) - What Happens Next {Legacy 19075802312} [FLAC]\03 - Thunder High on the Mountain.wav
Peak level 100.0 % Extraction speed 6.3 X Track quality 100.0 % Test CRC 8ACAF59E Copy CRC 8ACAF59E Track not present in AccurateRip database Copy OK
Track 4
Filename D:\Joe Satriani (2018) - What Happens Next {Legacy 19075802312} [FLAC]\04 - Cherry Blossoms.wav
Peak level 100.0 % Extraction speed 6.8 X Track quality 100.0 % Test CRC E8B30DCB Copy CRC E8B30DCB Track not present in AccurateRip database Copy OK
Track 5
Filename D:\Joe Satriani (2018) - What Happens Next {Legacy 19075802312} [FLAC]\05 - Righteous.wav
Peak level 100.0 % Extraction speed 7.1 X Track quality 100.0 % Test CRC C69170E8 Copy CRC C69170E8 Track not present in AccurateRip database Copy OK
Track 6
Filename D:\Joe Satriani (2018) - What Happens Next {Legacy 19075802312} [FLAC]\06 - Smooth Soul.wav
Peak level 100.0 % Extraction speed 7.5 X Track quality 100.0 % Test CRC 23CE7B50 Copy CRC 23CE7B50 Track not present in AccurateRip database Copy OK
Track 7
Filename D:\Joe Satriani (2018) - What Happens Next {Legacy 19075802312} [FLAC]\07 - Headrush.wav
Peak level 100.0 % Extraction speed 6.2 X Track quality 99.9 % Test CRC A16B655E Copy CRC A16B655E Track not present in AccurateRip database Copy OK
Track 8
Filename D:\Joe Satriani (2018) - What Happens Next {Legacy 19075802312} [FLAC]\08 - Looper.wav
Peak level 100.0 % Extraction speed 8.1 X Track quality 100.0 % Test CRC 4E7F6F3F Copy CRC 4E7F6F3F Track not present in AccurateRip database Copy OK
Track 9
Filename D:\Joe Satriani (2018) - What Happens Next {Legacy 19075802312} [FLAC]\09 - What Happens Next.wav
Pre-gap length 0:00:01.04
Peak level 100.0 % Extraction speed 8.7 X Track quality 100.0 % Test CRC 21D34E1D Copy CRC 21D34E1D Track not present in AccurateRip database Copy OK
Track 10
Filename D:\Joe Satriani (2018) - What Happens Next {Legacy 19075802312} [FLAC]\10 - Super Funky Badass.wav
Peak level 100.0 % Extraction speed 8.6 X Track quality 99.9 % Test CRC CD7A3938 Copy CRC CD7A3938 Track not present in AccurateRip database Copy OK
Track 11
Filename D:\Joe Satriani (2018) - What Happens Next {Legacy 19075802312} [FLAC]\11 - Invisible.wav
Peak level 100.0 % Extraction speed 9.6 X Track quality 100.0 % Test CRC 931BCC6F Copy CRC 931BCC6F Track not present in AccurateRip database Copy OK
Track 12
Filename D:\Joe Satriani (2018) - What Happens Next {Legacy 19075802312} [FLAC]\12 - Forever and Ever.wav
Peak level 100.0 % Extraction speed 9.8 X Track quality 100.0 % Test CRC FE192A42 Copy CRC FE192A42 Track not present in AccurateRip database Copy OK
None of the tracks are present in the AccurateRip database
No errors occurred
End of status report
---- CUETools DB Plugin V2.1.6
[CTDB TOCID: eCpnhvvFXSwXrk34RpqQPAo6Ods-] foundSubmit result: eCpnhvvFXSwXrk34RpqQPAo6Ods- has been confirmedTrack | CTDB Status 1 | (2/2) Accurately ripped 2 | (2/2) Accurately ripped 3 | (2/2) Accurately ripped 4 | (2/2) Accurately ripped 5 | (2/2) Accurately ripped 6 | (2/2) Accurately ripped 7 | (2/2) Accurately ripped 8 | (2/2) Accurately ripped 9 | (2/2) Accurately ripped 10 | (2/2) Accurately ripped 11 | (2/2) Accurately ripped 12 | (2/2) Accurately ripped
==== Log checksum FABED975DF62D1913DE96010A8C85980BA1BDDD4EAB52239FB1EC9EA686550A2 ====

Содержание индексной карты (.CUE)

REM GENRE "Instrumental Rock"REM DATE 2018REM DISCID 900C0F0CREM COMMENT "ExactAudioCopy v1.3"PERFORMER "Joe Satriani"TITLE "What Happens Next"REM COMPOSER ""FILE "01 - Energy.wav" WAVE  TRACK 01 AUDIO    TITLE "Energy"    PERFORMER "Joe Satriani"    REM COMPOSER ""    INDEX 01 00:00:00FILE "02 - Catbot.wav" WAVE  TRACK 02 AUDIO    TITLE "Catbot"    PERFORMER "Joe Satriani"    REM COMPOSER ""    INDEX 01 00:00:00FILE "03 - Thunder High on the Mountain.wav" WAVE  TRACK 03 AUDIO    TITLE "Thunder High on the Mountain"    PERFORMER "Joe Satriani"    REM COMPOSER ""    INDEX 01 00:00:00FILE "04 - Cherry Blossoms.wav" WAVE  TRACK 04 AUDIO    TITLE "Cherry Blossoms"    PERFORMER "Joe Satriani"    REM COMPOSER ""    INDEX 01 00:00:00FILE "05 - Righteous.wav" WAVE  TRACK 05 AUDIO    TITLE "Righteous"    PERFORMER "Joe Satriani"    REM COMPOSER ""    INDEX 01 00:00:00FILE "06 - Smooth Soul.wav" WAVE  TRACK 06 AUDIO    TITLE "Smooth Soul"    PERFORMER "Joe Satriani"    REM COMPOSER ""    INDEX 01 00:00:00FILE "07 - Headrush.wav" WAVE  TRACK 07 AUDIO    TITLE "Headrush"    PERFORMER "Joe Satriani"    REM COMPOSER ""    INDEX 01 00:00:00FILE "08 - Looper.wav" WAVE  TRACK 08 AUDIO    TITLE "Looper"    PERFORMER "Joe Satriani"    REM COMPOSER ""    INDEX 01 00:00:00  TRACK 09 AUDIO    TITLE "What Happens Next"    PERFORMER "Joe Satriani"    REM COMPOSER ""    INDEX 00 03:42:64FILE "09 - What Happens Next.wav" WAVE    INDEX 01 00:00:00FILE "10 - Super Funky Badass.wav" WAVE  TRACK 10 AUDIO    TITLE "Super Funky Badass"    PERFORMER "Joe Satriani"    REM COMPOSER ""    INDEX 01 00:00:00FILE "11 - Invisible.wav" WAVE  TRACK 11 AUDIO    TITLE "Invisible"    PERFORMER "Joe Satriani"    REM COMPOSER ""    INDEX 01 00:00:00FILE "12 - Forever and Ever.wav" WAVE  TRACK 12 AUDIO    TITLE "Forever and Ever"    PERFORMER "Joe Satriani"    REM COMPOSER ""    INDEX 01 00:00:00
Вы не можете начинать темы
Вы не можете отвечать на сообщения
Вы не можете редактировать свои сообщения
Вы не можете удалять свои сообщения
Вы не можете голосовать в опросах
Вы не можете прикреплять файлы к сообщениям
Вы можете скачивать файлы
!ВНИМАНИЕ!

Сайт не предоставляет электронные версии произведений, а занимается лишь коллекционированием и каталогизацией ссылок, присылаемых и публикуемых на форуме нашими читателями. Если вы являетесь правообладателем какого-либо представленного материала и не желаете, чтобы ссылка на него находилась в нашем каталоге, свяжитесь с нами, и мы незамедлительно удалим ее. Файлы для обмена на трекере предоставлены пользователями сайта, и администрация не несет ответственности за их содержание. Просьба не заливать файлы, защищенные авторскими правами, а также файлы нелегального содержания!

Искали программы, игры, дополнения, музыка mp3, аниме, аудио книги, журналы? Добро пожаловать на свободный торрент трекер Torrents, у нас можно скачать бесплатно, без смс и регистрации и прочих ограничений лучшие, отборные сборки программ, игр. Скачать торрентом не составит труда даже не опытному пользователю. Раздачи ежедневно обновляются, только лучшие и качественные раздачи, подробные описания и скриншоты. Огромная коллекция программ для работы со звуком, графикой, дизайном, а так же множество плагинов и инструментов к ним с подробной инструкцией и рекомендациями. Прошивки для навигаторов, карты. Разнообразные игры, для Windows, Linux. В коллекцие есть и старые игры любых жанров, Rpg, Action, Shooter, strategy Множество дополнений, модификаций, сценариев для популярных игр в жанре экш, рпг, гонки, стратегии, логические игры. Множество аддонов и сценариев для Microsoft Flight Simulator Большая коллекция книг, учебников. Если нет возможности купить печатное издание - смело скачивайте цифровую версию книги или, быть может, журнала. Не любите читать - можно загрузить бесплатно аудикнигу. Для веб дизайнеров и программистов так же найдется множество специализированного софта, таких как: редакторы с подсветкой, среды программирования, компоненты, системы управления базами данных, разнообразные скрипты и шаблоны. Не так давно у нас появился материал для автолюбителей и владельцев мото - оригинальные и неоригинальные каталоги запчастей, книги и журналы по ремонту и обслуживанию, видеоуроки, статьи по чип тюнингу, прошивкам. Процедура получения контента элементарная, достаточно просто скачать торрент файл и добавить его в загрузку в вашем торрент клиенте. Если у вас нет специального торрент клиента, вы можете его скачать у нас.