(Instrumental Hard Rock) [CD] Rob Balducci - Collection (2 Albums) - 2001-2005, FLAC (image+.cue), lossless 

Цитировать

Rob Balducci ~ Collection
Жанр: Instrumental Hard Rock
Носитель: CD
Страна-производитель диска (релиза): EU
Год издания: 2001-2005
Страна исполнителя (группы): USA
Аудиокодек: FLAC (*.flac)
Тип рипа: image+.cue
Битрейт аудио: lossless
Источник (релизер): kikel (спасибо !)
Наличие сканов в содержимом раздачи: да

2001 | Mantra | Favored Nations (FN2180-2) | 47:10

Треклист:
01. The Dance (5:12)
02. Amadeo (3:59)
03. Fear (4:25)
04. Mantra (4:37)
05. The Crimson King (4:42)
06. My Last Good-Bye (4:28)
07. Eve (3:31)
08. Pressure (3:13)
09. Kendra Lynn (0:38)
10. Reckless (3:58)
11. The Burning Man (4:55)
12. No Mystery (3:33)

Лог создания рипа

Exact Audio Copy V1.0 beta 4 from 7. December 2014
EAC extraction logfile from 13. November 2016, 16:53
Rob Balducci / Mantra
Used drive : HL-DT-STDVDRAM GU40N Adapter: 0 ID: 1
Read mode : SecureUtilize accurate stream : YesDefeat audio cache : YesMake use of C2 pointers : No
Read offset correction : 103Overread into Lead-In and Lead-Out : NoFill up missing offset samples with silence : YesDelete leading and trailing silent blocks : NoNull samples used in CRC calculations : YesUsed interface : Installed external ASPI interface
Used output format : Internal WAV RoutinesSample format : 44.100 Hz; 16 Bit; Stereo
TOC of the extracted CD
Track | Start | Length | Start sector | End sector --------------------------------------------------------- 1 | 0:00.00 | 5:12.30 | 0 | 23429 2 | 5:12.30 | 3:58.63 | 23430 | 41342 3 | 9:11.18 | 4:24.62 | 41343 | 61204 4 | 13:36.05 | 4:36.60 | 61205 | 81964 5 | 18:12.65 | 4:42.15 | 81965 | 103129 6 | 22:55.05 | 4:27.38 | 103130 | 123192 7 | 27:22.43 | 3:31.35 | 123193 | 139052 8 | 30:54.03 | 3:13.07 | 139053 | 153534 9 | 34:07.10 | 0:37.68 | 153535 | 156377 10 | 34:45.03 | 3:57.65 | 156378 | 174217 11 | 38:42.68 | 4:54.57 | 174218 | 196324 12 | 43:37.50 | 3:32.38 | 196325 | 212262
Range status and errors
Selected range
Filename C:\Users\workutagin\Desktop\Rob Balducci - Mantra 2001\Rob Balducci - Mantra.wav
Peak level 99.8 % Extraction speed 2.0 X Range quality 100.0 % Test CRC 9FD15E77 Copy CRC 9FD15E77 Copy OK
No errors occurred
AccurateRip summary
Track 1 cannot be verified as accurate (confidence 1) [EFAF07D2], AccurateRip returned [0C246658] (AR v2)Track 2 cannot be verified as accurate (confidence 1) [96B17A70], AccurateRip returned [7AF2923F] (AR v2)Track 3 cannot be verified as accurate (confidence 1) [04911703], AccurateRip returned [8064C814] (AR v2)Track 4 cannot be verified as accurate (confidence 1) [C45FE0A7], AccurateRip returned [34FC9BA0] (AR v2)Track 5 cannot be verified as accurate (confidence 1) [86BDDDE6], AccurateRip returned [838DAAC4] (AR v2)Track 6 cannot be verified as accurate (confidence 1) [F5FE6322], AccurateRip returned [5E18C75C] (AR v2)Track 7 cannot be verified as accurate (confidence 1) [A2F6162D], AccurateRip returned [7854915A] (AR v2)Track 8 cannot be verified as accurate (confidence 1) [964B5388], AccurateRip returned [BF580221] (AR v2)Track 9 accurately ripped (confidence 1) [D663EEA7] (AR v1)Track 10 accurately ripped (confidence 1) [5E8AE84D] (AR v1)Track 11 cannot be verified as accurate (confidence 1) [9C7384DB], AccurateRip returned [DA9F8D87] (AR v2)Track 12 cannot be verified as accurate (confidence 1) [B29F8072], AccurateRip returned [18F1EC91] (AR v2)
2 трек(и) скопированы точно10 трек(и) не удалось проверить на точность
Some tracks could not be verified as accurate
End of status report
==== Log checksum 9E298C1548BE1B4BA71FFF3B9921E694459D10BD2236925A7DF0E39911D1E2D3 ====

Лог проверки качества

foobar2000 1.2.9 / Dynamic Range Meter 1.1.1log date: 2017-03-02 23:57:07
--------------------------------------------------------------------------------Analyzed: Rob Balducci / Mantra--------------------------------------------------------------------------------
DR Peak RMS Duration Track--------------------------------------------------------------------------------DR7 -0.01 dB -7.78 dB 5:12 01-The DanceDR8 -0.01 dB -9.17 dB 3:59 02-AmadeoDR7 -0.01 dB -8.43 dB 4:25 03-FearDR8 -0.01 dB -8.92 dB 4:37 04-MantraDR7 -0.01 dB -7.29 dB 4:42 05-The Crimson KingDR7 -0.01 dB -8.36 dB 4:28 06-My Last Good-ByeDR8 -0.01 dB -9.75 dB 3:31 07-EveDR6 -0.01 dB -6.86 dB 3:13 08-PressureDR10 -2.53 dB -15.04 dB 0:38 09-Kendra LynnDR8 -0.01 dB -8.85 dB 3:58 10-RecklessDR7 -0.01 dB -7.91 dB 4:55 11-The Burning ManDR6 -0.01 dB -6.60 dB 3:33 12-No Mystery--------------------------------------------------------------------------------
Number of tracks: 12Official DR value: DR7
Samplerate: 44100 HzChannels: 2Bits per sample: 16Bitrate: 1016 kbpsCodec: FLAC================================================================================

2005 | The Color Of Light | Favored Nations ‎(FN2490-2) | 70:59

Треклист:
01. Falling Water (5:36)
02. The Alchemist (4:11)
03. R U Divine (6:17)
04. Empress (7:00)
05. The Queen of Cups (4:47)
06. The Color of Light (5:50)
07. Black Garden (5:13)
08. Of the Earth (A Vampire Love Story) (5:58)
09. Dementia (4:19)
10. I Bleed (6:34)
11. Cupra (1:25)
12. Ciree3 (7:20)
13. C.O.L - Frequency of Twilight (Bonus Track) (6:30)

Лог создания рипа

Exact Audio Copy V1.0 beta 4 from 7. December 2014
EAC extraction logfile from 13. November 2016, 17:59
Rob Balducci / The Color of Light
Used drive : HL-DT-STDVDRAM GU40N Adapter: 0 ID: 1
Read mode : SecureUtilize accurate stream : YesDefeat audio cache : YesMake use of C2 pointers : No
Read offset correction : 103Overread into Lead-In and Lead-Out : NoFill up missing offset samples with silence : YesDelete leading and trailing silent blocks : NoNull samples used in CRC calculations : YesUsed interface : Installed external ASPI interface
Used output format : User Defined EncoderSelected bitrate : 1024 kBit/sQuality : HighAdd ID3 tag : NoCommand line compressor : C:\Program Files (x86)\AudioConverter\AudioConverter.exeAdditional command line options : FLAC
TOC of the extracted CD
Track | Start | Length | Start sector | End sector --------------------------------------------------------- 1 | 0:00.00 | 5:36.13 | 0 | 25212 2 | 5:36.13 | 4:10.64 | 25213 | 44026 3 | 9:47.02 | 6:16.71 | 44027 | 72297 4 | 16:03.73 | 7:00.16 | 72298 | 103813 5 | 23:04.14 | 4:46.46 | 103814 | 125309 6 | 27:50.60 | 5:49.41 | 125310 | 151525 7 | 33:40.26 | 5:12.51 | 151526 | 174976 8 | 38:53.02 | 5:58.03 | 174977 | 201829 9 | 44:51.05 | 4:18.64 | 201830 | 221243 10 | 49:09.69 | 6:33.56 | 221244 | 250774 11 | 55:43.50 | 1:25.36 | 250775 | 257185 12 | 57:09.11 | 7:19.63 | 257186 | 290173 13 | 64:28.74 | 6:29.64 | 290174 | 319412
Range status and errors
Selected range
Filename C:\Users\workutagin\Desktop\Rob Balducci - The Color Of Light 2004\Rob Balducci - The Color of Light.wav
Peak level 100.0 % Extraction speed 2.2 X Range quality 100.0 % Test CRC DB15F7AC Copy CRC DB15F7AC Copy OK
No errors occurred
AccurateRip summary
Track 1 cannot be verified as accurate (confidence 1) [77CA3D8F], AccurateRip returned [F13A63E9] (AR v2)Track 2 cannot be verified as accurate (confidence 1) [56B9B061], AccurateRip returned [E14DE311] (AR v2)Track 3 cannot be verified as accurate (confidence 1) [33EB5619], AccurateRip returned [6A2609BF] (AR v2)Track 4 cannot be verified as accurate (confidence 1) [05B25D56], AccurateRip returned [2CE6B631] (AR v2)Track 5 cannot be verified as accurate (confidence 1) [FE8D161D], AccurateRip returned [50592215] (AR v2)Track 6 cannot be verified as accurate (confidence 1) [243520B9], AccurateRip returned [B2362096] (AR v2)Track 7 cannot be verified as accurate (confidence 1) [4C19B2D9], AccurateRip returned [29571105] (AR v2)Track 8 cannot be verified as accurate (confidence 1) [5577C4F6], AccurateRip returned [A21ABFA5] (AR v2)Track 9 cannot be verified as accurate (confidence 1) [D57BFDE5], AccurateRip returned [E287AF30] (AR v2)Track 10 cannot be verified as accurate (confidence 1) [B1EE566B], AccurateRip returned [375B5A75] (AR v2)Track 11 cannot be verified as accurate (confidence 1) [E26C7954], AccurateRip returned [AAF34B88] (AR v2)Track 12 cannot be verified as accurate (confidence 1) [86ADD569], AccurateRip returned [3C8C60D0] (AR v2)Track 13 cannot be verified as accurate (confidence 1) [4EF362D7], AccurateRip returned [52D77DA3] (AR v2)
No tracks could be verified as accurateYou may have a different pressing from the one(s) in the database
End of status report
==== Log checksum 70E77406B7BDFAA8EF3BDF783707F46A9F99D22670F2043F8CA8205CE551DA65 ====

Лог проверки качества

foobar2000 1.2.9 / Dynamic Range Meter 1.1.1log date: 2017-03-02 23:59:27
--------------------------------------------------------------------------------Analyzed: Rob Balducci / The Color of Light--------------------------------------------------------------------------------
DR Peak RMS Duration Track--------------------------------------------------------------------------------DR7 0.00 dB -8.45 dB 5:36 01-Falling WaterDR6 0.00 dB -7.22 dB 4:11 02-The AlchemistDR7 0.00 dB -8.77 dB 6:17 03-R U DivineDR6 0.00 dB -7.59 dB 7:00 04-EmpressDR8 0.00 dB -9.73 dB 4:47 05-The Queen of CupsDR6 0.00 dB -7.07 dB 5:50 06-The Color of LightDR6 0.00 dB -8.10 dB 5:13 07-Black GardenDR9 0.00 dB -10.66 dB 5:58 08-Of the Earth (A Vampire Love Story)DR8 0.00 dB -8.95 dB 4:19 09-DementiaDR7 0.00 dB -9.03 dB 6:34 10-I BleedDR11 0.00 dB -13.57 dB 1:25 11-CupraDR8 0.00 dB -9.64 dB 7:20 12-Ciree3DR6 0.00 dB -7.61 dB 6:30 13-C.O.L - Frequency of Twilight (Bonus Track)--------------------------------------------------------------------------------
Number of tracks: 13Official DR value: DR7
Samplerate: 44100 HzChannels: 2Bits per sample: 16Bitrate: 933 kbpsCodec: FLAC================================================================================
Вы не можете начинать темы
Вы не можете отвечать на сообщения
Вы не можете редактировать свои сообщения
Вы не можете удалять свои сообщения
Вы не можете голосовать в опросах
Вы не можете прикреплять файлы к сообщениям
Вы можете скачивать файлы
!ВНИМАНИЕ!

Сайт не предоставляет электронные версии произведений, а занимается лишь коллекционированием и каталогизацией ссылок, присылаемых и публикуемых на форуме нашими читателями. Если вы являетесь правообладателем какого-либо представленного материала и не желаете, чтобы ссылка на него находилась в нашем каталоге, свяжитесь с нами, и мы незамедлительно удалим ее. Файлы для обмена на трекере предоставлены пользователями сайта, и администрация не несет ответственности за их содержание. Просьба не заливать файлы, защищенные авторскими правами, а также файлы нелегального содержания!

Искали программы, игры, дополнения, музыка mp3, аниме, аудио книги, журналы? Добро пожаловать на свободный торрент трекер Torrents, у нас можно скачать бесплатно, без смс и регистрации и прочих ограничений лучшие, отборные сборки программ, игр. Скачать торрентом не составит труда даже не опытному пользователю. Раздачи ежедневно обновляются, только лучшие и качественные раздачи, подробные описания и скриншоты. Огромная коллекция программ для работы со звуком, графикой, дизайном, а так же множество плагинов и инструментов к ним с подробной инструкцией и рекомендациями. Прошивки для навигаторов, карты. Разнообразные игры, для Windows, Linux. В коллекцие есть и старые игры любых жанров, Rpg, Action, Shooter, strategy Множество дополнений, модификаций, сценариев для популярных игр в жанре экш, рпг, гонки, стратегии, логические игры. Множество аддонов и сценариев для Microsoft Flight Simulator Большая коллекция книг, учебников. Если нет возможности купить печатное издание - смело скачивайте цифровую версию книги или, быть может, журнала. Не любите читать - можно загрузить бесплатно аудикнигу. Для веб дизайнеров и программистов так же найдется множество специализированного софта, таких как: редакторы с подсветкой, среды программирования, компоненты, системы управления базами данных, разнообразные скрипты и шаблоны. Не так давно у нас появился материал для автолюбителей и владельцев мото - оригинальные и неоригинальные каталоги запчастей, книги и журналы по ремонту и обслуживанию, видеоуроки, статьи по чип тюнингу, прошивкам. Процедура получения контента элементарная, достаточно просто скачать торрент файл и добавить его в загрузку в вашем торрент клиенте. Если у вас нет специального торрент клиента, вы можете его скачать у нас.