(Progressive Metal, Fusion) [CD] Tony MacAlpine - Death of Roses - 2017, FLAC (tracks+.cue), lossless 

Цитировать
Tony MacAlpine / Death of Roses
Жанр: Progressive Metal, Fusion
Носитель: CD
Страна-производитель диска (релиза): Пиратка
Год издания: 2017
Издатель (лейбл): SUNGDOG REC. INC
Номер по каталогу: SDR20171
Страна исполнителя (группы): USA
Аудиокодек: FLAC (*.flac)
Тип рипа: tracks+.cue
Битрейт аудио: lossless
Продолжительность: 00:30:04
Источник (релизер): Свой рип
Наличие сканов в содержимом раздачи: да
Треклист:
01. Chrome Castles 3:37
02. Electric Illusionist 3:36
03. Synthetic Serenity 4:57
04. Death of Roses 4:08
05. Axiomatic Jewels 4:17
06. Entropy 4:10
07. Shundor Prithibi 5:20

Лог создания рипа

Exact Audio Copy V1.0 beta 3 from 29. August 2011
EAC extraction logfile from 14. November 2017, 15:05
Tony MacAlpine / Death of Roses
Used drive : HL-DT-STDVDRAM GH24NSB0 Adapter: 0 ID: 0
Read mode : Secure
Utilize accurate stream : Yes
Defeat audio cache : Yes
Make use of C2 pointers : No
Read offset correction : 6
Overread into Lead-In and Lead-Out : No
Fill up missing offset samples with silence : Yes
Delete leading and trailing silent blocks : No
Null samples used in CRC calculations : Yes
Used interface : Native Win32 interface for Win NT & 2000
Gap handling : Appended to previous track
Used output format : User Defined Encoder
Selected bitrate : 896 kBit/s
Quality : High
Add ID3 tag : No
Command line compressor : C:\Users\Alex\Desktop\EAC_1.0_beta_3_Portable_Multilingual\App\EAC\FLAC\flac.exe
Additional command line options : -6 -V -T "ARTIST=%artist%" -T "TITLE=%title%" -T "ALBUM=%albumtitle%" -T "DATE=%year%" -T "TRACKNUMBER=%tracknr%" -T "GENRE=%genre%" -T "COMMENT=%comment%" %hascover%--picture="%coverfile%"%hascover% %source% -o %dest%
TOC of the extracted CD
Track | Start | Length | Start sector | End sector
---------------------------------------------------------
1 | 0:00.00 | 3:36.59 | 0 | 16258
2 | 3:36.59 | 3:36.27 | 16259 | 32485
3 | 7:13.11 | 4:57.00 | 32486 | 54760
4 | 12:10.11 | 4:07.59 | 54761 | 73344
5 | 16:17.70 | 4:16.60 | 73345 | 92604
6 | 20:34.55 | 4:09.62 | 92605 | 111341
7 | 24:44.42 | 5:19.61 | 111342 | 135327
Track 1
Filename C:\Users\Alex\Desktop\Рипы\Tony MacAlpine 2017 Death of Roses\01 - Chrome Castles.wav
Pre-gap length 0:00:02.00
Peak level 98.8 %
Extraction speed 1.0 X
Track quality 99.9 %
Test CRC 868B63A8
Copy CRC 868B63A8
Cannot be verified as accurate (confidence 1) [71D83B7E], AccurateRip returned [5FD64175] (AR v2)
Copy OK
Track 2
Filename C:\Users\Alex\Desktop\Рипы\Tony MacAlpine 2017 Death of Roses\02 - Electric Illusionist.wav
Peak level 98.8 %
Extraction speed 1.2 X
Track quality 100.0 %
Test CRC E3F1B9B8
Copy CRC E3F1B9B8
Cannot be verified as accurate (confidence 1) [FBC97C92], AccurateRip returned [35266503] (AR v2)
Copy OK
Track 3
Filename C:\Users\Alex\Desktop\Рипы\Tony MacAlpine 2017 Death of Roses\03 - Synthetic Serenity.wav
Peak level 98.8 %
Extraction speed 1.4 X
Track quality 100.0 %
Test CRC 758CD8F9
Copy CRC 758CD8F9
Cannot be verified as accurate (confidence 1) [7A1B3D69], AccurateRip returned [F078ACE1] (AR v2)
Copy OK
Track 4
Filename C:\Users\Alex\Desktop\Рипы\Tony MacAlpine 2017 Death of Roses\04 - Death of Roses.wav
Peak level 98.8 %
Extraction speed 1.5 X
Track quality 100.0 %
Test CRC 3A8032A6
Copy CRC 3A8032A6
Cannot be verified as accurate (confidence 1) [10324EA5], AccurateRip returned [15DE67D2] (AR v2)
Copy OK
Track 5
Filename C:\Users\Alex\Desktop\Рипы\Tony MacAlpine 2017 Death of Roses\05 - Axiomatic Jewels.wav
Peak level 98.8 %
Extraction speed 1.6 X
Track quality 100.0 %
Test CRC F78E9CB5
Copy CRC F78E9CB5
Cannot be verified as accurate (confidence 1) [66456A4A], AccurateRip returned [20D90595] (AR v2)
Copy OK
Track 6
Filename C:\Users\Alex\Desktop\Рипы\Tony MacAlpine 2017 Death of Roses\06 - Entropy.wav
Peak level 98.8 %
Extraction speed 1.7 X
Track quality 100.0 %
Test CRC 8E5AA3BA
Copy CRC 8E5AA3BA
Cannot be verified as accurate (confidence 1) [A3F8F648], AccurateRip returned [2456F7AF] (AR v2)
Copy OK
Track 7
Filename C:\Users\Alex\Desktop\Рипы\Tony MacAlpine 2017 Death of Roses\07 - Shundor Prithibi.wav
Peak level 98.8 %
Extraction speed 1.8 X
Track quality 100.0 %
Test CRC A7E72B72
Copy CRC A7E72B72
Cannot be verified as accurate (confidence 1) [EFC50E85], AccurateRip returned [CC0F75A0] (AR v2)
Copy OK
No tracks could be verified as accurate
You may have a different pressing from the one(s) in the database
No errors occurred
End of status report
==== Log checksum 693F1273B69D5D966CE97E0C3D6606734D6E05F7B701AD16014874D198CBA45E ====

Содержание индексной карты (.CUE)

REM GENRE Fusion
REM DATE 2017
REM DISCID 5D070C07
REM COMMENT "ExactAudioCopy v1.0b3"
PERFORMER "Tony MacAlpine"
TITLE "Death of Roses"
FILE "01 - Chrome Castles.wav" WAVE
TRACK 01 AUDIO
TITLE "Chrome Castles "
PERFORMER "Tony MacAlpine"
INDEX 01 00:00:00
FILE "02 - Electric Illusionist.wav" WAVE
TRACK 02 AUDIO
TITLE "Electric Illusionist "
PERFORMER "Tony MacAlpine"
INDEX 01 00:00:00
FILE "03 - Synthetic Serenity.wav" WAVE
TRACK 03 AUDIO
TITLE "Synthetic Serenity "
PERFORMER "Tony MacAlpine"
INDEX 01 00:00:00
FILE "04 - Death of Roses.wav" WAVE
TRACK 04 AUDIO
TITLE "Death of Roses "
PERFORMER "Tony MacAlpine"
INDEX 01 00:00:00
FILE "05 - Axiomatic Jewels.wav" WAVE
TRACK 05 AUDIO
TITLE "Axiomatic Jewels "
PERFORMER "Tony MacAlpine"
INDEX 01 00:00:00
FILE "06 - Entropy.wav" WAVE
TRACK 06 AUDIO
TITLE "Entropy "
PERFORMER "Tony MacAlpine"
INDEX 01 00:00:00
FILE "07 - Shundor Prithibi.wav" WAVE
TRACK 07 AUDIO
TITLE "Shundor Prithibi "
PERFORMER "Tony MacAlpine"
INDEX 01 00:00:00

Состав

Tony MacAlpine - Guitar, Keyboards
Peter Griffin - Bass
Borlai Gergo - Drums
Вы не можете начинать темы
Вы не можете отвечать на сообщения
Вы не можете редактировать свои сообщения
Вы не можете удалять свои сообщения
Вы не можете голосовать в опросах
Вы не можете прикреплять файлы к сообщениям
Вы можете скачивать файлы
!ВНИМАНИЕ!

Сайт не предоставляет электронные версии произведений, а занимается лишь коллекционированием и каталогизацией ссылок, присылаемых и публикуемых на форуме нашими читателями. Если вы являетесь правообладателем какого-либо представленного материала и не желаете, чтобы ссылка на него находилась в нашем каталоге, свяжитесь с нами, и мы незамедлительно удалим ее. Файлы для обмена на трекере предоставлены пользователями сайта, и администрация не несет ответственности за их содержание. Просьба не заливать файлы, защищенные авторскими правами, а также файлы нелегального содержания!

Искали программы, игры, дополнения, музыка mp3, аниме, аудио книги, журналы? Добро пожаловать на свободный торрент трекер Torrents, у нас можно скачать бесплатно, без смс и регистрации и прочих ограничений лучшие, отборные сборки программ, игр. Скачать торрентом не составит труда даже не опытному пользователю. Раздачи ежедневно обновляются, только лучшие и качественные раздачи, подробные описания и скриншоты. Огромная коллекция программ для работы со звуком, графикой, дизайном, а так же множество плагинов и инструментов к ним с подробной инструкцией и рекомендациями. Прошивки для навигаторов, карты. Разнообразные игры, для Windows, Linux. В коллекцие есть и старые игры любых жанров, Rpg, Action, Shooter, strategy Множество дополнений, модификаций, сценариев для популярных игр в жанре экш, рпг, гонки, стратегии, логические игры. Множество аддонов и сценариев для Microsoft Flight Simulator Большая коллекция книг, учебников. Если нет возможности купить печатное издание - смело скачивайте цифровую версию книги или, быть может, журнала. Не любите читать - можно загрузить бесплатно аудикнигу. Для веб дизайнеров и программистов так же найдется множество специализированного софта, таких как: редакторы с подсветкой, среды программирования, компоненты, системы управления базами данных, разнообразные скрипты и шаблоны. Не так давно у нас появился материал для автолюбителей и владельцев мото - оригинальные и неоригинальные каталоги запчастей, книги и журналы по ремонту и обслуживанию, видеоуроки, статьи по чип тюнингу, прошивкам. Процедура получения контента элементарная, достаточно просто скачать торрент файл и добавить его в загрузку в вашем торрент клиенте. Если у вас нет специального торрент клиента, вы можете его скачать у нас.