Не родись красивой / Серии: 189 из 200 (Александр Назаров) [2005, мелодрама, DVDRip] 

Цитировать
Не родись красивой
Год выпуска: 2005
Производство: Амедиа
Жанр: мелодрама
Продолжительность: 00:41:54
Субтитры: нет
Режиссёр: Александр Назаров
В ролях: Григорий Антипенко, Нелли Уварова, Раиса Рязанова, Георгий Тараторкин, Ольга Остроумова, Петр Красилов, Юлия Куварзина, Ольга Ломоносова, Илья Любимов, Мария Машкова, Ирина Муравьёва
Описание: Это история о девушке Кате, работающей секретарем в компании ZIMALETTO. Хотя природа наделила ее острым умом, прекрасным характером и чистой душой, увы, до сих пор ни один мужчина не задержал на ней заинтересованного взгляда. Однако неприметная внешность не мешает Кате мечтать о любви и счастье…
Катя пытается идти по жизни, опираясь на свои замечательные душевные качества и высочайшую квалификацию, но жестокий мир, привыкший и встречать, и провожать людей по «одежке», несправедлив к ней. День за днем она вынуждена выслушивать дерзкие насмешки и становиться жертвой все новых злых розыгрышей. И, в конце концов, она свыкается с мыслью, что ей придется остаться старой девой, что личное счастье – не для нее. Всю свою энергию она направляет на работу.
Катя смиряется с недоброжелательностью сослуживцев, но не догадывается о ее причинах. Дело в том, что она своим появлением мешает планам невесты президента фирмы Андрея и ее амбициозного брата. Александр ведет свою, одному ему известную игру, в конце которой он намерен оказаться во главе фирмы. Компетентность и умелые действия Кати срывают планы тайных врагов и, несмотря на их происки, положение ее в фирме становится более прочным.
Устроится ли Катина личная жизнь? Как далеко удастся ей продвинуться по карьерной лестнице? Станет ли Гадкий Утенок прекрасным Лебедем? Это и предстоит узнать зрителям.
Доп. информация: Эта серия полностью со звуком.
Все раздачи сериала: http://rutracker.org/forum/tracker.php?f=9&nm=%CD%E5+%F0%EE%E4%E8%F1%FC+%EA%F0%E0%F1%E8%E2%EE%E9
Качество: DVDRip
Формат: AVI
Видео кодек: XviD
Аудио кодек: MP3
Видео: Xvid 560x420 25.00fps 1330 Kbps 0.226 Bits/(Pixel*Frame)
Аудио: 48 kHz, MPEG Layer 3, 2 ch, ~128.00 kbps avg

MI

General
Complete name : F:\Не родись красивой\Ne rodis krasivoy 189.avi
Format : AVI
Format/Info : Audio Video Interleave
File size : 440 MiB
Duration : 41mn 54s
Overall bit rate : 1 468 Kbps
Writing library : VirtualDub build 32842/release
Video
ID : 0
Format : MPEG-4 Visual
Format profile : Advanced Simple@L5
Format settings, BVOP : 2
Format settings, QPel : No
Format settings, GMC : No warppoints
Format settings, Matrix : Default (MPEG)
Muxing mode : Packed bitstream
Codec ID : XVID
Codec ID/Hint : XviD
Duration : 41mn 54s
Bit rate : 1 330 Kbps
Width : 560 pixels
Height : 420 pixels
Display aspect ratio : 4:3
Frame rate : 25.000 fps
Color space : YUV
Chroma subsampling : 4:2:0
Bit depth : 8 bits
Scan type : Progressive
Compression mode : Lossy
Bits/(Pixel*Frame) : 0.226
Stream size : 399 MiB (91%)
Writing library : XviD 64
Audio
ID : 1
Format : MPEG Audio
Format version : Version 1
Format profile : Layer 3
Mode : Joint stereo
Mode extension : MS Stereo
Codec ID : 55
Codec ID/Hint : MP3
Duration : 41mn 54s
Bit rate mode : Constant
Bit rate : 128 Kbps
Channel(s) : 2 channels
Sampling rate : 48.0 KHz
Compression mode : Lossy
Stream size : 38.4 MiB (9%)
Alignment : Split accross interleaves
Interleave, duration : 40 ms (1.00 video frame)
Interleave, preload duration : 500 ms

Скриншоты

Вы не можете начинать темы
Вы не можете отвечать на сообщения
Вы не можете редактировать свои сообщения
Вы не можете удалять свои сообщения
Вы не можете голосовать в опросах
Вы не можете прикреплять файлы к сообщениям
Вы можете скачивать файлы
!ВНИМАНИЕ!

Сайт не предоставляет электронные версии произведений, а занимается лишь коллекционированием и каталогизацией ссылок, присылаемых и публикуемых на форуме нашими читателями. Если вы являетесь правообладателем какого-либо представленного материала и не желаете, чтобы ссылка на него находилась в нашем каталоге, свяжитесь с нами, и мы незамедлительно удалим ее. Файлы для обмена на трекере предоставлены пользователями сайта, и администрация не несет ответственности за их содержание. Просьба не заливать файлы, защищенные авторскими правами, а также файлы нелегального содержания!

Искали программы, игры, дополнения, музыка mp3, аниме, аудио книги, журналы? Добро пожаловать на свободный торрент трекер Torrents, у нас можно скачать бесплатно, без смс и регистрации и прочих ограничений лучшие, отборные сборки программ, игр. Скачать торрентом не составит труда даже не опытному пользователю. Раздачи ежедневно обновляются, только лучшие и качественные раздачи, подробные описания и скриншоты. Огромная коллекция программ для работы со звуком, графикой, дизайном, а так же множество плагинов и инструментов к ним с подробной инструкцией и рекомендациями. Прошивки для навигаторов, карты. Разнообразные игры, для Windows, Linux. В коллекцие есть и старые игры любых жанров, Rpg, Action, Shooter, strategy Множество дополнений, модификаций, сценариев для популярных игр в жанре экш, рпг, гонки, стратегии, логические игры. Множество аддонов и сценариев для Microsoft Flight Simulator Большая коллекция книг, учебников. Если нет возможности купить печатное издание - смело скачивайте цифровую версию книги или, быть может, журнала. Не любите читать - можно загрузить бесплатно аудикнигу. Для веб дизайнеров и программистов так же найдется множество специализированного софта, таких как: редакторы с подсветкой, среды программирования, компоненты, системы управления базами данных, разнообразные скрипты и шаблоны. Не так давно у нас появился материал для автолюбителей и владельцев мото - оригинальные и неоригинальные каталоги запчастей, книги и журналы по ремонту и обслуживанию, видеоуроки, статьи по чип тюнингу, прошивкам. Процедура получения контента элементарная, достаточно просто скачать торрент файл и добавить его в загрузку в вашем торрент клиенте. Если у вас нет специального торрент клиента, вы можете его скачать у нас.