(Instrumental Guitar Rock) Dave Uhrich - Dave Uhrich - 1992, APE (image+.cue), lossless 

Цитировать
Dave Uhrich - Dave Uhrich
Жанр: Instrumental Guitar Rock
Год выпуска диска: 1992
Производитель диска: USA
Аудио кодек: APE
Тип рипа: image+.cue
Битрейт аудио: lossless
Продолжительность: 45:04
Трэклист:
1. Fury
2. Quarter to Three
3. Blue Rose
4. Kristin
5. Paradise Island
6. Majestic Solitude
7. City Heat
8. Rondo in D
9. Take it Home Boy
10. Show's Over at 2:30
11. The Shipment
12. Down Home
Доп. информация:
Dave Uhrich guitars
Dan Sheehan bass
Joe Gumino drums
Rick Kurek keys
Mark Smith drums
Jerry Goodman violin
Bill Dickens bass
Phil Uhrich key solo
http://www.myspace.com/daveuhrich
http://www.daveuhrich.com/

Отчёт EAC

Exact Audio Copy V0.99 prebeta 4 from 23. January 2008
Отчёт EAC об извлечении, выполненном 16. февраля 2010, 8:29
Dave Uhrich / Dave Uhrich
Дисковод: Optiarc DVD RW AD-7173S Adapter: 3 ID: 0
Режим чтения : ДостоверностьИспользование точного потока : ДаОтключение кэша аудио : ДаИспользование указателей C2 : Нет
Коррекция смещения при чтении : 48Способность читать области Lead-in и Lead-out : НетЗаполнение пропущенных сэмплов тишиной : ДаУдаление блоков с тишиной в начале и конце : НетПри вычислениях CRC использовались нулевые сэмплы : НетИнтерфейс : Встроенный Win32-интерфейс для Win NT/2000
Выходной формат : Monkey's Audio (без потерь)Выбранный битрейт : High Lossless CompressionКачество : ВысокийДобавление ID3-тэга : НетУтилита сжатия : C:\Program Files\Monkey's Audio\MAC.exe
TOC извлечённого CD
Трек | Старт | Длительность | Начальный сектор | Конечный сектор --------------------------------------------------------------------- 1 | 0:00.55 | 3:08.37 | 55 | 14191 2 | 3:09.17 | 3:01.38 | 14192 | 27804 3 | 6:10.55 | 5:05.05 | 27805 | 50684 4 | 11:15.60 | 2:47.22 | 50685 | 63231 5 | 14:03.07 | 3:38.28 | 63232 | 79609 6 | 17:41.35 | 5:08.62 | 79610 | 102771 7 | 22:50.22 | 2:44.15 | 102772 | 115086 8 | 25:34.37 | 3:06.58 | 115087 | 129094 9 | 28:41.20 | 5:01.25 | 129095 | 151694 10 | 33:42.45 | 3:11.62 | 151695 | 166081 11 | 36:54.32 | 5:00.58 | 166082 | 188639 12 | 41:55.15 | 3:09.35 | 188640 | 202849
Характеристики диапазона извлечения и сообщения об ошибках
Выбранный диапазон
Имя файла E:\Выкладываемая Музыка\Dave Uhrich - Dave Uhrich.wav
Пиковый уровень 99.9 % Качество диапазона 99.9 % CRC копии 56B3AFDF Копирование... OK
Ошибок не произошло
Конец отчёта
Собственный рип с оригинального диска.
Вы не можете начинать темы
Вы не можете отвечать на сообщения
Вы не можете редактировать свои сообщения
Вы не можете удалять свои сообщения
Вы не можете голосовать в опросах
Вы не можете прикреплять файлы к сообщениям
Вы можете скачивать файлы
!ВНИМАНИЕ!

Сайт не предоставляет электронные версии произведений, а занимается лишь коллекционированием и каталогизацией ссылок, присылаемых и публикуемых на форуме нашими читателями. Если вы являетесь правообладателем какого-либо представленного материала и не желаете, чтобы ссылка на него находилась в нашем каталоге, свяжитесь с нами, и мы незамедлительно удалим ее. Файлы для обмена на трекере предоставлены пользователями сайта, и администрация не несет ответственности за их содержание. Просьба не заливать файлы, защищенные авторскими правами, а также файлы нелегального содержания!

Искали программы, игры, дополнения, музыка mp3, аниме, аудио книги, журналы? Добро пожаловать на свободный торрент трекер Torrents, у нас можно скачать бесплатно, без смс и регистрации и прочих ограничений лучшие, отборные сборки программ, игр. Скачать торрентом не составит труда даже не опытному пользователю. Раздачи ежедневно обновляются, только лучшие и качественные раздачи, подробные описания и скриншоты. Огромная коллекция программ для работы со звуком, графикой, дизайном, а так же множество плагинов и инструментов к ним с подробной инструкцией и рекомендациями. Прошивки для навигаторов, карты. Разнообразные игры, для Windows, Linux. В коллекцие есть и старые игры любых жанров, Rpg, Action, Shooter, strategy Множество дополнений, модификаций, сценариев для популярных игр в жанре экш, рпг, гонки, стратегии, логические игры. Множество аддонов и сценариев для Microsoft Flight Simulator Большая коллекция книг, учебников. Если нет возможности купить печатное издание - смело скачивайте цифровую версию книги или, быть может, журнала. Не любите читать - можно загрузить бесплатно аудикнигу. Для веб дизайнеров и программистов так же найдется множество специализированного софта, таких как: редакторы с подсветкой, среды программирования, компоненты, системы управления базами данных, разнообразные скрипты и шаблоны. Не так давно у нас появился материал для автолюбителей и владельцев мото - оригинальные и неоригинальные каталоги запчастей, книги и журналы по ремонту и обслуживанию, видеоуроки, статьи по чип тюнингу, прошивкам. Процедура получения контента элементарная, достаточно просто скачать торрент файл и добавить его в загрузку в вашем торрент клиенте. Если у вас нет специального торрент клиента, вы можете его скачать у нас.