(Hard Rock/Shred) Joe Satriani - Dreaming #11 (EP) (Japan, 18DP 5401, 1989) - 1988, FLAC (image+.cue), lossless 

Цитировать
Joe Satriani - Dreaming #11 (EP) (Japan 1st Press 1989)
Жанр: Hard Rock/Shred
Страна: США
Год выхода альбома: 1988
Год выпуска диска: 1989
Производитель диска: Япония
Аудио кодек: FLAC
Тип рипа: image+.cue
Битрейт аудио: lossless
Продолжительность: 23:23
Рип: Не мой. Все благодарности уходят к ikebana.
Трэклист:
1. The Crush Of Love (04:21)
2. Ice Nine (live) (04:41)
3. Memories (live) (09:09)
4. Hordes Of Locusts (live) (05:12)
Доп. информация:
Лейбл: RELATIVITY/CBS-SONY
Каталоговый номер: 18DP 5401
Матрица: DPA-731 1 (SONY)
Состав:
Joe Satriani: guitar, bass (1), keyboards (1)
Bongo Bob Smith: percussion (1)
Jeff Campitelli: drums (1)
Stuart Hamm: bass
Jonathan Moverlli: drums

log

Exact Audio Copy V0.99 prebeta 5 from 4. May 2009
Отчёт EAC об извлечении, выполненном 31. августа 2010, 13:32
Joe Satriani / Dreaming #11 (EP) [18DP 5401]
Дисковод: Optiarc DVD RW AD-7200A Adapter: 1 ID: 0
Режим чтения : ДостоверностьИспользование точного потока : ДаОтключение кэша аудио : ДаИспользование указателей C2 : Нет
Коррекция смещения при чтении : 48Способность читать области Lead-in и Lead-out : НетЗаполнение пропущенных сэмплов тишиной : ДаУдаление блоков с тишиной в начале и конце : НетПри вычислениях CRC использовались нулевые сэмплы : ДаИнтерфейс : Встроенный Win32-интерфейс для Win NT/2000
Выходной формат : Пользовательский кодировщикВыбранный битрейт : 128 kBit/sКачество : ВысокийДобавление ID3-тэга : НетУтилита сжатия : C:\Program Files\Exact Audio Copy\Flac\flac.exeДополнительные параметры : -8 -V -T "artist=%a" -T "title=%t" -T "album=%g" -T "date=%y" -T "tracknumber=%n" -T "genre=%m" -T "comment=EAC
TOC извлечённого CD
Трек | Старт | Длительность | Начальный сектор | Конечный сектор --------------------------------------------------------------------- 1 | 0:00.00 | 4:21.00 | 0 | 19574 2 | 4:21.00 | 4:41.20 | 19575 | 40669 3 | 9:02.20 | 9:08.65 | 40670 | 81834 4 | 18:11.10 | 5:11.40 | 81835 | 105199
Характеристики диапазона извлечения и сообщения об ошибках
Выбранный диапазон
Имя файла Y:\Музыка\Joe Satriani\1988 Dreaming #11 (EP)\Joe Satriani - Dreaming #11 (EP) [18DP 5401].wav
Пиковый уровень 97.5 % Качество диапазона 100.0 % CRC копии 6962A63C Копирование... OK
Ошибок не произошло
AccurateRip: сводка
Трек 1 нет в базе данныхТрек 2 нет в базе данныхТрек 3 нет в базе данныхТрек 4 нет в базе данных
Ни одного трека нет в базе AccurateRip
Конец отчёта

cue

REM GENRE "Hard Rock/Shred"REM DATE 1988REM DISCID 27057A04REM COMMENT "ExactAudioCopy v0.99pb5"PERFORMER "Joe Satriani"TITLE "Dreaming #11 (EP) [18DP 5401]"FILE "Joe Satriani - Dreaming #11 (EP) [18DP 5401].flac" WAVE  TRACK 01 AUDIO    TITLE "The Crush Of Love"    PERFORMER "Joe Satriani"    INDEX 01 00:00:00  TRACK 02 AUDIO    TITLE "Ice Nine (live)"    PERFORMER "Joe Satriani"    INDEX 00 04:19:00    INDEX 01 04:21:00  TRACK 03 AUDIO    TITLE "Memories (live)"    PERFORMER "Joe Satriani"    INDEX 01 09:02:20  TRACK 04 AUDIO    TITLE "Hordes Of Locusts (live)"    PERFORMER "Joe Satriani"    INDEX 01 18:11:10

фото

Вы не можете начинать темы
Вы не можете отвечать на сообщения
Вы не можете редактировать свои сообщения
Вы не можете удалять свои сообщения
Вы не можете голосовать в опросах
Вы не можете прикреплять файлы к сообщениям
Вы можете скачивать файлы
!ВНИМАНИЕ!

Сайт не предоставляет электронные версии произведений, а занимается лишь коллекционированием и каталогизацией ссылок, присылаемых и публикуемых на форуме нашими читателями. Если вы являетесь правообладателем какого-либо представленного материала и не желаете, чтобы ссылка на него находилась в нашем каталоге, свяжитесь с нами, и мы незамедлительно удалим ее. Файлы для обмена на трекере предоставлены пользователями сайта, и администрация не несет ответственности за их содержание. Просьба не заливать файлы, защищенные авторскими правами, а также файлы нелегального содержания!

Искали программы, игры, дополнения, музыка mp3, аниме, аудио книги, журналы? Добро пожаловать на свободный торрент трекер Torrents, у нас можно скачать бесплатно, без смс и регистрации и прочих ограничений лучшие, отборные сборки программ, игр. Скачать торрентом не составит труда даже не опытному пользователю. Раздачи ежедневно обновляются, только лучшие и качественные раздачи, подробные описания и скриншоты. Огромная коллекция программ для работы со звуком, графикой, дизайном, а так же множество плагинов и инструментов к ним с подробной инструкцией и рекомендациями. Прошивки для навигаторов, карты. Разнообразные игры, для Windows, Linux. В коллекцие есть и старые игры любых жанров, Rpg, Action, Shooter, strategy Множество дополнений, модификаций, сценариев для популярных игр в жанре экш, рпг, гонки, стратегии, логические игры. Множество аддонов и сценариев для Microsoft Flight Simulator Большая коллекция книг, учебников. Если нет возможности купить печатное издание - смело скачивайте цифровую версию книги или, быть может, журнала. Не любите читать - можно загрузить бесплатно аудикнигу. Для веб дизайнеров и программистов так же найдется множество специализированного софта, таких как: редакторы с подсветкой, среды программирования, компоненты, системы управления базами данных, разнообразные скрипты и шаблоны. Не так давно у нас появился материал для автолюбителей и владельцев мото - оригинальные и неоригинальные каталоги запчастей, книги и журналы по ремонту и обслуживанию, видеоуроки, статьи по чип тюнингу, прошивкам. Процедура получения контента элементарная, достаточно просто скачать торрент файл и добавить его в загрузку в вашем торрент клиенте. Если у вас нет специального торрент клиента, вы можете его скачать у нас.