(Rock, Instrumental Rock) [CD] Patryk DeRosa - Riproaria - 2009 (CD Baby USA), FLAC (image+.cue), lossless 

Цитировать
Patryk DeRosa - Riproaria
Жанр: Rock, Instrumental Rock
Страна-производитель диска: USA
Год издания диска: 2009
Издатель (лейбл): CD Baby
Номер по каталогу: CDBY 5637580420
Страна: USA
Аудиокодек: FLAC (*.flac)
Тип рипа: image+.cue
Битрейт аудио: lossless
Продолжительность: 00:38:43
Источник (релизер): Sket4er
Наличие сканов в содержимом раздачи:
Треклист:
01. Hyperoidal Spazmodia 03:34
02. Brutal Noodle 03:35
03. Transmemberfied 04:37
04. Riproaria 03:59
05. The Pendulum 05:34
06. Happy Tits 03:50
07. Fat Guy 04:50
08. Brokedown In Chinatown 04:38
09. Lovers (Acoustic Nylon) 04:06

Лог создания рипа

Exact Audio Copy V1.1 from 23. June 2015
EAC extraction logfile from 21. January 2017, 18:26
Patryk deRosa / Riproaria
Used drive : TSSTcorpCDDVDW SH-224DB Adapter: 1 ID: 0
Read mode : Secure
Utilize accurate stream : Yes
Defeat audio cache : Yes
Make use of C2 pointers : No
Read offset correction : 6
Overread into Lead-In and Lead-Out : No
Fill up missing offset samples with silence : Yes
Delete leading and trailing silent blocks : No
Null samples used in CRC calculations : Yes
Used interface : Native Win32 interface for Win NT & 2000
Used output format : User Defined Encoder
Selected bitrate : 1024 kBit/s
Quality : High
Add ID3 tag : No
Command line compressor : C:\Program Files (x86)\Exact Audio Copy\win64\flac.exe
Additional command line options : -8 -V -T "ARTIST=%artist%" -T "TITLE=%title%" -T "ALBUM=%albumtitle%" -T "DATE=%year%" -T "TRACKNUMBER=%tracknr%" -T "GENRE=%genre%" -T "COMMENT=%comment%" %source% -o %dest%
TOC of the extracted CD
Track | Start | Length | Start sector | End sector
---------------------------------------------------------
1 | 0:00.00 | 3:33.60 | 0 | 16034
2 | 3:33.60 | 3:34.44 | 16035 | 32128
3 | 7:08.29 | 4:37.01 | 32129 | 52904
4 | 11:45.30 | 3:59.03 | 52905 | 70832
5 | 15:44.33 | 5:34.09 | 70833 | 95891
6 | 21:18.42 | 3:50.23 | 95892 | 113164
7 | 25:08.65 | 4:49.44 | 113165 | 134883
8 | 29:58.34 | 4:38.17 | 134884 | 155750
9 | 34:36.51 | 4:06.34 | 155751 | 174234
Range status and errors
Selected range
Filename C:\Sket4er\Patryk deRosa - Riproaria (2009)\Patryk deRosa - Riproaria.wav
Peak level 100.0 %
Extraction speed 2.9 X
Range quality 100.0 %
Test CRC 0D156614
Copy CRC 0D156614
Copy OK
No errors occurred
AccurateRip summary
Track 1 not present in database
Track 2 not present in database
Track 3 not present in database
Track 4 not present in database
Track 5 not present in database
Track 6 not present in database
Track 7 not present in database
Track 8 not present in database
Track 9 not present in database
None of the tracks are present in the AccurateRip database
End of status report
---- CUETools DB Plugin V2.1.6
[CTDB TOCID: v6xaE8SQqPIOAwIw4fMliQ7yKds-] disk not present in database
Submit result: v6xaE8SQqPIOAwIw4fMliQ7yKds- has been uploaded
==== Log checksum 1B1DB162EE33213EC262C3818CC5B736D1DE5C39A4CC5550A3DF7CFA4CAB8276 ====

Содержание индексной карты (.CUE)

REM DATE 2009
REM DISCID 5E091309
REM COMMENT "ExactAudioCopy v1.1"
PERFORMER "Patryk deRosa"
TITLE "Riproaria"
FILE "Patryk deRosa - Riproaria.flac" WAVE
TRACK 01 AUDIO
TITLE "Hyperoidal Spazmodia"
PERFORMER "Patryk deRosa"
INDEX 01 00:00:00
TRACK 02 AUDIO
TITLE "Brutal Noodle"
PERFORMER "Patryk deRosa"
INDEX 00 03:31:61
INDEX 01 03:33:60
TRACK 03 AUDIO
TITLE "Transmemberfied"
PERFORMER "Patryk deRosa"
INDEX 00 07:06:30
INDEX 01 07:08:29
TRACK 04 AUDIO
TITLE "Riproaria"
PERFORMER "Patryk deRosa"
INDEX 00 11:43:31
INDEX 01 11:45:30
TRACK 05 AUDIO
TITLE "The Pendulum"
PERFORMER "Patryk deRosa"
INDEX 00 15:42:34
INDEX 01 15:44:33
TRACK 06 AUDIO
TITLE "Happy Tits"
PERFORMER "Patryk deRosa"
INDEX 00 21:16:43
INDEX 01 21:18:42
TRACK 07 AUDIO
TITLE "Fat Guy"
PERFORMER "Patryk deRosa"
INDEX 00 25:06:66
INDEX 01 25:08:65
TRACK 08 AUDIO
TITLE "Brokedown In Chinatown"
PERFORMER "Patryk deRosa"
INDEX 00 29:56:35
INDEX 01 29:58:34
TRACK 09 AUDIO
TITLE "Lovers (Acoustic Nylon)"
PERFORMER "Patryk deRosa"
INDEX 00 34:34:52
INDEX 01 34:36:51

Лог проверки качества

-----------------------
DON'T MODIFY THIS FILE
-----------------------
PERFORMER: auCDtect Task Manager, ver. 1.5.1RC4 build 1.5.1.5
Copyright (c) 2008-2010 y-soft. All rights reserved
http://y-soft.org
ANALYZER: auCDtect: CD records authenticity detector, version 0.8.2
Copyright (c) 2004 Oleg Berngardt. All rights reserved.
Copyright (c) 2004 Alexander Djourik. All rights reserved.
FILE: Patryk deRosa - Riproaria.flac
Size: 260766963 Hash: 1F4099663F00F3C80B07039218978E9A Accuracy: -m0
Conclusion: MPEG 95%
Signature: C8DC4E822574651A0AA1A7E6EB96CA2B2BC14B95

CUETools log

[CUETools log; Date: 07.02.2017 20:41:58; Version: 2.1.4]
[CTDB TOCID: v6xaE8SQqPIOAwIw4fMliQ7yKds-] found.
Track | CTDB Status
1 | (1/1) Accurately ripped
2 | (1/1) Accurately ripped
3 | (1/1) Accurately ripped
4 | (1/1) Accurately ripped
5 | (1/1) Accurately ripped
6 | (1/1) Accurately ripped
7 | (1/1) Accurately ripped
8 | (1/1) Accurately ripped
9 | (1/1) Accurately ripped
[AccurateRip ID: 000ce805-005fe683-5e091309] disk not present in database.
Track Peak [ CRC32 ] [W/O NULL] [ LOG ]
-- 100,0 [0D156614] [D41530C7] CRC32
01 41,0 [03DF4640] [5F2DEAFB]
02 48,6 [00C35E5D] [B65407F6]
03 55,8 [0163667D] [82197764]
04 50,7 [DDF3EEFA] [298A2615]
05 48,6 [C79DDF3D] [04E44469]
06 51,6 [F6367A4A] [A441E455]
07 43,5 [24BA94A8] [093E56A7]
08 61,2 [1E6A4489] [215DB8FD]
09 100,0 [30EA322D] [948E550C]

DR log

foobar2000 1.3.9 / Замер динамического диапазона (DR) 1.1.1
Дата отчёта: 2017-02-07 20:40:07
--------------------------------------------------------------------------------
Анализ: Patryk deRosa / Riproaria
--------------------------------------------------------------------------------
DR Пики RMS Продолжительность трека
--------------------------------------------------------------------------------
DR5 -7.73 дБ -13.56 дБ 3:34 1-Hyperoidal Spazmodia
DR6 -6.25 дБ -13.54 дБ 3:35 2-Brutal Noodle
DR7 -5.06 дБ -13.54 дБ 4:37 3-Transmemberfied
DR6 -5.89 дБ -13.53 дБ 3:59 4-Riproaria
DR6 -6.26 дБ -13.53 дБ 5:34 5-The Pendulum
DR7 -5.75 дБ -13.53 дБ 3:50 6-Happy Tits
DR5 -7.22 дБ -13.53 дБ 4:50 7-Fat Guy
DR8 -4.25 дБ -13.52 дБ 4:38 8-Brokedown In Chinatown
DR9 0.00 дБ -13.52 дБ 4:06 9-Lovers (Acoustic Nylon)
--------------------------------------------------------------------------------
Количество треков: 9
Реальные значения DR: DR7
Частота: 44100 Гц
Каналов: 2
Разрядность: 16
Битрейт: 898 кбит/с
Кодек: FLAC
================================================================================
Доп. информация

Об исполнителе

A chunk-riddled, heavy-but-tasteful, straight-to-the-point, no-bones instrumental, 7-string guitar extravaganza densely and intensely composed to give our listeners a lot of meat to chew. Ain't no messin' around here, just shreddin!
http://www.cdbaby.com/cd/patryk4

Back, Disc, Spectrogram

Вы не можете начинать темы
Вы не можете отвечать на сообщения
Вы не можете редактировать свои сообщения
Вы не можете удалять свои сообщения
Вы не можете голосовать в опросах
Вы не можете прикреплять файлы к сообщениям
Вы можете скачивать файлы
!ВНИМАНИЕ!

Сайт не предоставляет электронные версии произведений, а занимается лишь коллекционированием и каталогизацией ссылок, присылаемых и публикуемых на форуме нашими читателями. Если вы являетесь правообладателем какого-либо представленного материала и не желаете, чтобы ссылка на него находилась в нашем каталоге, свяжитесь с нами, и мы незамедлительно удалим ее. Файлы для обмена на трекере предоставлены пользователями сайта, и администрация не несет ответственности за их содержание. Просьба не заливать файлы, защищенные авторскими правами, а также файлы нелегального содержания!

Искали программы, игры, дополнения, музыка mp3, аниме, аудио книги, журналы? Добро пожаловать на свободный торрент трекер Torrents, у нас можно скачать бесплатно, без смс и регистрации и прочих ограничений лучшие, отборные сборки программ, игр. Скачать торрентом не составит труда даже не опытному пользователю. Раздачи ежедневно обновляются, только лучшие и качественные раздачи, подробные описания и скриншоты. Огромная коллекция программ для работы со звуком, графикой, дизайном, а так же множество плагинов и инструментов к ним с подробной инструкцией и рекомендациями. Прошивки для навигаторов, карты. Разнообразные игры, для Windows, Linux. В коллекцие есть и старые игры любых жанров, Rpg, Action, Shooter, strategy Множество дополнений, модификаций, сценариев для популярных игр в жанре экш, рпг, гонки, стратегии, логические игры. Множество аддонов и сценариев для Microsoft Flight Simulator Большая коллекция книг, учебников. Если нет возможности купить печатное издание - смело скачивайте цифровую версию книги или, быть может, журнала. Не любите читать - можно загрузить бесплатно аудикнигу. Для веб дизайнеров и программистов так же найдется множество специализированного софта, таких как: редакторы с подсветкой, среды программирования, компоненты, системы управления базами данных, разнообразные скрипты и шаблоны. Не так давно у нас появился материал для автолюбителей и владельцев мото - оригинальные и неоригинальные каталоги запчастей, книги и журналы по ремонту и обслуживанию, видеоуроки, статьи по чип тюнингу, прошивкам. Процедура получения контента элементарная, достаточно просто скачать торрент файл и добавить его в загрузку в вашем торрент клиенте. Если у вас нет специального торрент клиента, вы можете его скачать у нас.