(Rock) Points North - Road Less Traveled - 2012, FLAC (image+.cue), lossless 

Цитировать
Points North / Road Less Traveled
Жанр: Rock
Страна-производитель диска: USA
Год издания: 2012
Издатель (лейбл): Magna Carta Records
Страна: USA
Аудиокодек: FLAC (*.flac)
Тип рипа: image+.cue
Битрейт аудио: lossless
Продолжительность: 50:53
Источник (релизер): Own collection
Наличие сканов в содержимом раздачи: нет
Треклист:
01. Vast Horizons 3:32
02. High Wire 4:19
03. The Phoenix 4:43
04. Grace Under Pressure 6:04
05. Barney 4:24
06. Jubilee 3:41
07. Steve's Morsels 4:03
08. The Source 4:35
09. Delay Song 3:37
10. Maiden Voyage 5:54
11. Sweet Solitude 5:57

Лог создания рипа

Exact Audio Copy V1.0 beta 3 from 29. August 2011
EAC extraction logfile from 19. March 2012, 14:38
Points North / Road Less Traveled
Used drive : HL-DT-STDVDRAM GU10N Adapter: 3 ID: 0
Read mode : Secure
Utilize accurate stream : Yes
Defeat audio cache : Yes
Make use of C2 pointers : No
Read offset correction : 667
Overread into Lead-In and Lead-Out : No
Fill up missing offset samples with silence : Yes
Delete leading and trailing silent blocks : No
Null samples used in CRC calculations : Yes
Used interface : Native Win32 interface for Win NT & 2000
Used output format : Internal WAV Routines
Sample format : 44.100 Hz; 16 Bit; Stereo
TOC of the extracted CD
Track | Start | Length | Start sector | End sector
---------------------------------------------------------
1 | 0:00.00 | 3:32.24 | 0 | 15923
2 | 3:32.24 | 4:19.58 | 15924 | 35406
3 | 7:52.07 | 4:43.21 | 35407 | 56652
4 | 12:35.28 | 6:04.44 | 56653 | 83996
5 | 18:39.72 | 4:24.04 | 83997 | 103800
6 | 23:04.01 | 3:41.09 | 103801 | 120384
7 | 26:45.10 | 4:03.50 | 120385 | 138659
8 | 30:48.60 | 4:35.55 | 138660 | 159339
9 | 35:24.40 | 3:37.25 | 159340 | 175639
10 | 39:01.65 | 5:54.12 | 175640 | 202201
11 | 44:56.02 | 5:57.17 | 202202 | 228993
Range status and errors
Selected range
Filename C:\Private\Music - to burn\To backup\Points North 2012 - Road Less Traveled\Points North - Road Less Traveled.wav
Peak level 98.9 %
Extraction speed 3.8 X
Range quality 100.0 %
Test CRC 38972208
Copy CRC 38972208
Copy OK
No errors occurred
AccurateRip summary
Track 1 not present in database
Track 2 not present in database
Track 3 not present in database
Track 4 not present in database
Track 5 not present in database
Track 6 not present in database
Track 7 not present in database
Track 8 not present in database
Track 9 not present in database
Track 10 not present in database
Track 11 not present in database
None of the tracks are present in the AccurateRip database
End of status report

Содержание индексной карты (.CUE)

REM GENRE Rock
REM DATE 2012
REM DISCID 8E0BED0B
REM COMMENT "ExactAudioCopy v1.0b3"
PERFORMER "Points North"
TITLE "Road Less Traveled"
FILE "Points North - Road Less Traveled.flac" WAVE
TRACK 01 AUDIO
TITLE "Vast Horizons"
PERFORMER "Points North"
INDEX 01 00:00:00
TRACK 02 AUDIO
TITLE "High Wire"
PERFORMER "Points North"
INDEX 00 03:30:24
INDEX 01 03:32:24
TRACK 03 AUDIO
TITLE "The Phoenix"
PERFORMER "Points North"
INDEX 00 07:49:32
INDEX 01 07:52:07
TRACK 04 AUDIO
TITLE "Grace Under Pressure"
PERFORMER "Points North"
INDEX 00 12:33:28
INDEX 01 12:35:28
TRACK 05 AUDIO
TITLE "Barney"
PERFORMER "Points North"
INDEX 00 18:37:72
INDEX 01 18:39:72
TRACK 06 AUDIO
TITLE "Jubilee"
PERFORMER "Points North"
INDEX 00 23:02:01
INDEX 01 23:04:01
TRACK 07 AUDIO
TITLE "Steve's Morsels"
PERFORMER "Points North"
INDEX 00 26:42:35
INDEX 01 26:45:10
TRACK 08 AUDIO
TITLE "The Source"
PERFORMER "Points North"
INDEX 00 30:46:10
INDEX 01 30:48:60
TRACK 09 AUDIO
TITLE "Delay Song"
PERFORMER "Points North"
INDEX 00 35:22:40
INDEX 01 35:24:40
TRACK 10 AUDIO
TITLE "Maiden Voyage"
PERFORMER "Points North"
INDEX 00 38:59:65
INDEX 01 39:01:65
TRACK 11 AUDIO
TITLE "Sweet Solitude"
PERFORMER "Points North"
INDEX 00 44:53:02
INDEX 01 44:56:02

Об исполнителе (группе)

http://magnacarta.net/pointsnorth/index.html

Состав

Eric Barnett - Guitar
Damen Sisson - Bass
Kevin Aiello - Drums
Мои раздачи - http://rutracker.org/forum/tracker.php?rid=13061466
Вы не можете начинать темы
Вы не можете отвечать на сообщения
Вы не можете редактировать свои сообщения
Вы не можете удалять свои сообщения
Вы не можете голосовать в опросах
Вы не можете прикреплять файлы к сообщениям
Вы можете скачивать файлы
!ВНИМАНИЕ!

Сайт не предоставляет электронные версии произведений, а занимается лишь коллекционированием и каталогизацией ссылок, присылаемых и публикуемых на форуме нашими читателями. Если вы являетесь правообладателем какого-либо представленного материала и не желаете, чтобы ссылка на него находилась в нашем каталоге, свяжитесь с нами, и мы незамедлительно удалим ее. Файлы для обмена на трекере предоставлены пользователями сайта, и администрация не несет ответственности за их содержание. Просьба не заливать файлы, защищенные авторскими правами, а также файлы нелегального содержания!

Искали программы, игры, дополнения, музыка mp3, аниме, аудио книги, журналы? Добро пожаловать на свободный торрент трекер Torrents, у нас можно скачать бесплатно, без смс и регистрации и прочих ограничений лучшие, отборные сборки программ, игр. Скачать торрентом не составит труда даже не опытному пользователю. Раздачи ежедневно обновляются, только лучшие и качественные раздачи, подробные описания и скриншоты. Огромная коллекция программ для работы со звуком, графикой, дизайном, а так же множество плагинов и инструментов к ним с подробной инструкцией и рекомендациями. Прошивки для навигаторов, карты. Разнообразные игры, для Windows, Linux. В коллекцие есть и старые игры любых жанров, Rpg, Action, Shooter, strategy Множество дополнений, модификаций, сценариев для популярных игр в жанре экш, рпг, гонки, стратегии, логические игры. Множество аддонов и сценариев для Microsoft Flight Simulator Большая коллекция книг, учебников. Если нет возможности купить печатное издание - смело скачивайте цифровую версию книги или, быть может, журнала. Не любите читать - можно загрузить бесплатно аудикнигу. Для веб дизайнеров и программистов так же найдется множество специализированного софта, таких как: редакторы с подсветкой, среды программирования, компоненты, системы управления базами данных, разнообразные скрипты и шаблоны. Не так давно у нас появился материал для автолюбителей и владельцев мото - оригинальные и неоригинальные каталоги запчастей, книги и журналы по ремонту и обслуживанию, видеоуроки, статьи по чип тюнингу, прошивкам. Процедура получения контента элементарная, достаточно просто скачать торрент файл и добавить его в загрузку в вашем торрент клиенте. Если у вас нет специального торрент клиента, вы можете его скачать у нас.