(Instrumental Rock, Fusion, Jam Bands) [CD] Steve Kimock - Live in Colorado, Vol. 2 (feat. Rodney Holmes & Alphonso Johnson) - 2004, FLAC (tracks+.cue), lossless 

Цитировать
Steve Kimock / Live in Colorado, Vol. 2
Жанр: Instrumental Rock, Fusion, Jam Bands
Носитель: CD
Год издания: 2004
Издатель (лейбл): Steve Kimock Productions
Страна: USA
Аудиокодек: FLAC (*.flac)
Тип рипа: tracks+.cue
Битрейт аудио: lossless
Продолжительность: 01:17:29+01:12:09
Источник (релизер): stupendous
Наличие сканов в содержимом раздачи: нет
Треклист:
Disc One:
1- Severe Tire Damage
2- Bad Hair
3- Life Of The Party
4- One For Brother Mike
5- Why Can't We All Just Samba?
Disc Two:
1- Storm Crow
2- Long Form Part 1
3- Elmer's Revenge
4- Electric Wildlife
5- Avalon

Disc1

Лог создания рипа

Exact Audio Copy V0.99 prebeta 3 from 28. July 2007
EAC extraction logfile from 28. June 2010, 16:06
Steve Kimock Band / Live In Colorado, Vol 2 (Disc 1)
Used drive : MATSHITADVD/CDRW UJDA782 Adapter: 1 ID: 0
Read mode : Secure
Utilize accurate stream : Yes
Defeat audio cache : Yes
Make use of C2 pointers : No
Read offset correction : 102
Overread into Lead-In and Lead-Out : No
Fill up missing offset samples with silence : Yes
Delete leading and trailing silent blocks : No
Null samples used in CRC calculations : Yes
Used interface : Native Win32 interface for Win NT & 2000
Gap handling : Appended to previous track
Used output format : User Defined Encoder
Selected bitrate : 320 kBit/s
Quality : High
Add ID3 tag : No
Command line compressor : C:\Program Files\Exact Audio Copy\Flac\flac.exe
Additional command line options : -V -8 -T "artist=%a" -T "title=%t" -T "album=%g" -T "date=%y" -T "tracknumber=%n" -T "genre=%m" %s
TOC of the extracted CD
Track | Start | Length | Start sector | End sector
---------------------------------------------------------
1 | 0:00.00 | 15:59.34 | 0 | 71958
2 | 15:59.34 | 14:51.07 | 71959 | 138790
3 | 30:50.41 | 8:54.52 | 138791 | 178892
4 | 39:45.18 | 6:46.14 | 178893 | 209356
5 | 46:31.32 | 20:55.70 | 209357 | 303551
Track 1
Filename F:\What.cd\Steve Kimock Band - Live in Colorado Vol 2\01 - Severe Tire Damage.wav
Pre-gap length 0:00:02.00
Peak level 98.7 %
Track quality 100.0 %
Test CRC A9D924A3
Copy CRC A9D924A3
Copy OK
Track 2
Filename F:\What.cd\Steve Kimock Band - Live in Colorado Vol 2\02 - Bad Hair.wav
Peak level 86.8 %
Track quality 100.0 %
Test CRC 703E4A15
Copy CRC 703E4A15
Copy OK
Track 3
Filename F:\What.cd\Steve Kimock Band - Live in Colorado Vol 2\03 - Life Of The Party.wav
Peak level 95.0 %
Track quality 100.0 %
Test CRC A4ED4065
Copy CRC A4ED4065
Copy OK
Track 4
Filename F:\What.cd\Steve Kimock Band - Live in Colorado Vol 2\04 - One For Brother Mike.wav
Peak level 93.3 %
Track quality 100.0 %
Test CRC 6A20618A
Copy CRC 6A20618A
Copy OK
Track 5
Filename F:\What.cd\Steve Kimock Band - Live in Colorado Vol 2\05 - Why Can't We All Just Samba.wav
Peak level 100.0 %
Track quality 100.0 %
Test CRC 90DAC381
Copy CRC 90DAC381
Copy OK
No errors occurred
End of status report

Содержание индексной карты (.CUE)

REM GENRE Jazz+Funk
REM DATE 2003
REM DISCID 4B0FCF05
REM COMMENT "ExactAudioCopy v0.99pb3"
PERFORMER "Steve Kimock Band"
TITLE "Live In Colorado, Vol 2 (Disc 1)"
FILE "01 - Severe Tire Damage.wav" WAVE
TRACK 01 AUDIO
TITLE "Severe Tire Damage"
PERFORMER "Steve Kimock Band"
INDEX 01 00:00:00
FILE "02 - Bad Hair.wav" WAVE
TRACK 02 AUDIO
TITLE "Bad Hair"
PERFORMER "Steve Kimock Band"
INDEX 01 00:00:00
FILE "03 - Life Of The Party.wav" WAVE
TRACK 03 AUDIO
TITLE "Life Of The Party"
PERFORMER "Steve Kimock Band"
INDEX 01 00:00:00
FILE "04 - One For Brother Mike.wav" WAVE
TRACK 04 AUDIO
TITLE "One For Brother Mike"
PERFORMER "Steve Kimock Band"
INDEX 01 00:00:00
FILE "05 - Why Can't We All Just Samba.wav" WAVE
TRACK 05 AUDIO
TITLE "Why Can't We All Just Samba"
PERFORMER "Steve Kimock Band"
INDEX 01 00:00:00

Disc2

скрытый текст

Exact Audio Copy V0.99 prebeta 3 from 28. July 2007
EAC extraction logfile from 28. June 2010, 17:48
Steve Kimock Band / Live In Colorado, Vol 2 (Disc 2)
Used drive : MATSHITADVD/CDRW UJDA782 Adapter: 1 ID: 0
Read mode : Secure
Utilize accurate stream : Yes
Defeat audio cache : Yes
Make use of C2 pointers : No
Read offset correction : 102
Overread into Lead-In and Lead-Out : No
Fill up missing offset samples with silence : Yes
Delete leading and trailing silent blocks : No
Null samples used in CRC calculations : Yes
Used interface : Native Win32 interface for Win NT & 2000
Gap handling : Appended to previous track
Used output format : User Defined Encoder
Selected bitrate : 320 kBit/s
Quality : High
Add ID3 tag : No
Command line compressor : C:\Program Files\Exact Audio Copy\Flac\flac.exe
Additional command line options : -V -8 -T "artist=%a" -T "title=%t" -T "album=%g" -T "date=%y" -T "tracknumber=%n" -T "genre=%m" %s
TOC of the extracted CD
Track | Start | Length | Start sector | End sector
---------------------------------------------------------
1 | 0:00.00 | 10:01.45 | 0 | 45119
2 | 10:01.45 | 20:24.31 | 45120 | 136950
3 | 30:26.01 | 19:05.74 | 136951 | 222899
4 | 49:32.00 | 7:27.46 | 222900 | 256470
5 | 56:59.46 | 15:08.22 | 256471 | 324592
Track 1
Filename F:\What.cd\Steve Kimock Band - Live in Colorado Vol 2\01 - Storm Crow.wav
Pre-gap length 0:00:02.00
Peak level 75.8 %
Track quality 100.0 %
Test CRC 867D6B7B
Copy CRC 867D6B7B
Copy OK
Track 2
Filename F:\What.cd\Steve Kimock Band - Live in Colorado Vol 2\02 - Long Form Part 1.wav
Peak level 92.3 %
Track quality 100.0 %
Test CRC 1AF0688B
Copy CRC 1AF0688B
Copy OK
Track 3
Filename F:\What.cd\Steve Kimock Band - Live in Colorado Vol 2\03 - Elmer's Revenge.wav
Peak level 100.0 %
Track quality 100.0 %
Test CRC FEF62E8A
Copy CRC FEF62E8A
Copy OK
Track 4
Filename F:\What.cd\Steve Kimock Band - Live in Colorado Vol 2\04 - Electric Wildlife.wav
Peak level 88.6 %
Track quality 99.9 %
Test CRC B6091F47
Copy CRC B6091F47
Copy OK
Track 5
Filename F:\What.cd\Steve Kimock Band - Live in Colorado Vol 2\05 - Avalon.wav
Peak level 100.0 %
Track quality 100.0 %
Test CRC 4C74CC20
Copy CRC 4C74CC20
Copy OK
No errors occurred
End of status report

скрытый текст

REM GENRE Jazz+Funk
REM DATE 2003
REM DISCID 3E10E705
REM COMMENT "ExactAudioCopy v0.99pb3"
PERFORMER "Steve Kimock Band"
TITLE "Live In Colorado, Vol 2 (Disc 2)"
FILE "01 - Storm Crow.wav" WAVE
TRACK 01 AUDIO
TITLE "Storm Crow"
PERFORMER "Steve Kimock Band"
INDEX 01 00:00:00
FILE "02 - Long Form Part 1.wav" WAVE
TRACK 02 AUDIO
TITLE "Long Form Part 1"
PERFORMER "Steve Kimock Band"
INDEX 01 00:00:00
FILE "03 - Elmer's Revenge.wav" WAVE
TRACK 03 AUDIO
TITLE "Elmer's Revenge"
PERFORMER "Steve Kimock Band"
INDEX 01 00:00:00
FILE "04 - Electric Wildlife.wav" WAVE
TRACK 04 AUDIO
TITLE "Electric Wildlife"
PERFORMER "Steve Kimock Band"
INDEX 01 00:00:00
FILE "05 - Avalon.wav" WAVE
TRACK 05 AUDIO
TITLE "Avalon"
PERFORMER "Steve Kimock Band"
INDEX 01 00:00:00

Об альбоме (сборнике)

lbum Notes cdbaby.com

Состав

Rodney Holmes (Drums), Alphonso Johnson (Bass), Steve Kimock (Guitar), Mitch Stein (Guitar), Jim Kost (Keyboards)
Вы не можете начинать темы
Вы не можете отвечать на сообщения
Вы не можете редактировать свои сообщения
Вы не можете удалять свои сообщения
Вы не можете голосовать в опросах
Вы не можете прикреплять файлы к сообщениям
Вы можете скачивать файлы
!ВНИМАНИЕ!

Сайт не предоставляет электронные версии произведений, а занимается лишь коллекционированием и каталогизацией ссылок, присылаемых и публикуемых на форуме нашими читателями. Если вы являетесь правообладателем какого-либо представленного материала и не желаете, чтобы ссылка на него находилась в нашем каталоге, свяжитесь с нами, и мы незамедлительно удалим ее. Файлы для обмена на трекере предоставлены пользователями сайта, и администрация не несет ответственности за их содержание. Просьба не заливать файлы, защищенные авторскими правами, а также файлы нелегального содержания!

Искали программы, игры, дополнения, музыка mp3, аниме, аудио книги, журналы? Добро пожаловать на свободный торрент трекер Torrents, у нас можно скачать бесплатно, без смс и регистрации и прочих ограничений лучшие, отборные сборки программ, игр. Скачать торрентом не составит труда даже не опытному пользователю. Раздачи ежедневно обновляются, только лучшие и качественные раздачи, подробные описания и скриншоты. Огромная коллекция программ для работы со звуком, графикой, дизайном, а так же множество плагинов и инструментов к ним с подробной инструкцией и рекомендациями. Прошивки для навигаторов, карты. Разнообразные игры, для Windows, Linux. В коллекцие есть и старые игры любых жанров, Rpg, Action, Shooter, strategy Множество дополнений, модификаций, сценариев для популярных игр в жанре экш, рпг, гонки, стратегии, логические игры. Множество аддонов и сценариев для Microsoft Flight Simulator Большая коллекция книг, учебников. Если нет возможности купить печатное издание - смело скачивайте цифровую версию книги или, быть может, журнала. Не любите читать - можно загрузить бесплатно аудикнигу. Для веб дизайнеров и программистов так же найдется множество специализированного софта, таких как: редакторы с подсветкой, среды программирования, компоненты, системы управления базами данных, разнообразные скрипты и шаблоны. Не так давно у нас появился материал для автолюбителей и владельцев мото - оригинальные и неоригинальные каталоги запчастей, книги и журналы по ремонту и обслуживанию, видеоуроки, статьи по чип тюнингу, прошивкам. Процедура получения контента элементарная, достаточно просто скачать торрент файл и добавить его в загрузку в вашем торрент клиенте. Если у вас нет специального торрент клиента, вы можете его скачать у нас.