(Instrumental Rock) Guthrie Govan - Erotic Cakes - 2011, FLAC (image+.cue), lossless 

Цитировать
Guthrie Govan / Erotic Cakes
Жанр: Instrumental Rock
Страна-производитель диска: UK
Год издания: 2011
Издатель (лейбл): JTC Records
Страна: UK
Аудиокодек: FLAC (*.flac)
Тип рипа: image+.cue
Битрейт аудио: lossless
Продолжительность: 54:58
Источник (релизер): Own collection
Наличие сканов в содержимом раздачи: да
Треклист:
01. Waves 5:08
02. Erotic Cakes 3:50
03. Wonderful Slippery Thing 3:20
04. Ner Ner 8:04
05. Fives 4:36
06. Uncle Skunk 5:29
07. Sevens 5:57
08. Eric 5:05
09. Slidey Boy 4:35
10. Rhode Island Shred 2:18
11. Hangover 6:32

Лог создания рипа

Exact Audio Copy V1.0 beta 3 from 29. August 2011
EAC extraction logfile from 8. April 2012, 13:30
Guthrie Govan / Erotic Cakes
Used drive : HL-DT-STDVDRAM GU10N Adapter: 3 ID: 0
Read mode : Secure
Utilize accurate stream : Yes
Defeat audio cache : Yes
Make use of C2 pointers : No
Read offset correction : 667
Overread into Lead-In and Lead-Out : No
Fill up missing offset samples with silence : Yes
Delete leading and trailing silent blocks : No
Null samples used in CRC calculations : Yes
Used interface : Native Win32 interface for Win NT & 2000
Used output format : Internal WAV Routines
Sample format : 44.100 Hz; 16 Bit; Stereo
TOC of the extracted CD
Track | Start | Length | Start sector | End sector
---------------------------------------------------------
1 | 0:00.00 | 5:08.66 | 0 | 23165
2 | 5:08.66 | 3:50.60 | 23166 | 40475
3 | 8:59.51 | 3:20.57 | 40476 | 55532
4 | 12:20.33 | 8:04.57 | 55533 | 91889
5 | 20:25.15 | 4:36.18 | 91890 | 112607
6 | 25:01.33 | 5:29.11 | 112608 | 137293
7 | 30:30.44 | 5:57.04 | 137294 | 164072
8 | 36:27.48 | 5:05.37 | 164073 | 186984
9 | 41:33.10 | 4:35.12 | 186985 | 207621
10 | 46:08.22 | 2:18.14 | 207622 | 217985
11 | 48:26.36 | 6:32.27 | 217986 | 247412
Range status and errors
Selected range
Filename c:\Private\Music - to burn\To backup\Guthrie Govan 2011 - Erotic Cakes\Guthrie Govan - Erotic Cakes.wav
Peak level 97.3 %
Extraction speed 3.8 X
Range quality 100.0 %
Test CRC 1B39D502
Copy CRC 1B39D502
Copy OK
No errors occurred
AccurateRip summary
Track 1 cannot be verified as accurate (confidence 13) [4492292E], AccurateRip returned [98F8EAB9] (AR v2)
Track 2 cannot be verified as accurate (confidence 13) [706A1D74], AccurateRip returned [E46A361F] (AR v2)
Track 3 cannot be verified as accurate (confidence 13) [D2D08932], AccurateRip returned [89C2B567] (AR v2)
Track 4 cannot be verified as accurate (confidence 13) [64858E24], AccurateRip returned [7BEBB85D] (AR v2)
Track 5 cannot be verified as accurate (confidence 13) [735E4A97], AccurateRip returned [596ACB8E] (AR v2)
Track 6 cannot be verified as accurate (confidence 13) [1DDEC3E6], AccurateRip returned [0225D0C1] (AR v2)
Track 7 cannot be verified as accurate (confidence 13) [9CC6CA0D], AccurateRip returned [2642B127] (AR v2)
Track 8 cannot be verified as accurate (confidence 13) [7F7C24EE], AccurateRip returned [3ED983AB] (AR v2)
Track 9 cannot be verified as accurate (confidence 12) [1E1660D4], AccurateRip returned [702B4E57] (AR v2)
Track 10 cannot be verified as accurate (confidence 12) [BAE96EBE], AccurateRip returned [7E145D30] (AR v2)
Track 11 cannot be verified as accurate (confidence 13) [E4A3380F], AccurateRip returned [1C7CB7A8] (AR v2)
No tracks could be verified as accurate
You may have a different pressing from the one(s) in the database
End of status report

Содержание индексной карты (.CUE)

REM GENRE "Instrumental Rock"
REM DATE 2011
REM DISCID 8B0CE20B
REM COMMENT "ExactAudioCopy v1.0b3"
PERFORMER "Guthrie Govan"
TITLE "Erotic Cakes"
FILE "Guthrie Govan - Erotic Cakes.flac" WAVE
TRACK 01 AUDIO
TITLE "Waves"
PERFORMER "Guthrie Govan"
INDEX 01 00:00:00
TRACK 02 AUDIO
TITLE "Erotic Cakes"
PERFORMER "Guthrie Govan"
INDEX 01 05:08:66
TRACK 03 AUDIO
TITLE "Wonderful Slippery Thing"
PERFORMER "Guthrie Govan"
INDEX 00 08:58:31
INDEX 01 08:59:51
TRACK 04 AUDIO
TITLE "Ner Ner"
PERFORMER "Guthrie Govan"
INDEX 00 12:19:06
INDEX 01 12:20:33
TRACK 05 AUDIO
TITLE "Fives"
PERFORMER "Guthrie Govan"
INDEX 00 20:23:23
INDEX 01 20:25:15
TRACK 06 AUDIO
TITLE "Uncle Skunk"
PERFORMER "Guthrie Govan"
INDEX 01 25:01:33
TRACK 07 AUDIO
TITLE "Sevens"
PERFORMER "Guthrie Govan"
INDEX 00 30:29:14
INDEX 01 30:30:44
TRACK 08 AUDIO
TITLE "Eric"
PERFORMER "Guthrie Govan"
INDEX 01 36:27:48
TRACK 09 AUDIO
TITLE "Slidey Boy"
PERFORMER "Guthrie Govan"
INDEX 01 41:33:10
TRACK 10 AUDIO
TITLE "Rhode Island Shred"
PERFORMER "Guthrie Govan"
INDEX 01 46:08:22
TRACK 11 AUDIO
TITLE "Hangover"
PERFORMER "Guthrie Govan"
INDEX 00 48:25:32
INDEX 01 48:26:36

Лог проверки качества

AUDIOCHECKER v2.0 beta (build 457) - by Dester - opdester@freemail.hu
~~~~~~~~~~~~~~~~~~~~~~~~~~~~~~~~~~
-=== DO NOT EDIT THIS FILE! ===-
Path: ...\Guthrie Govan 2011 - Erotic Cakes
1 -=- Guthrie Govan - Erotic Cakes.wav -=- CDDA (100%)
255251700

Band

Guthrie Govan - guitars
Seth Govan - bass
Andy - Hammond
Pete Riley - drums
Доп. информация (last.fm): Гатри Гован (род. 1971) — английский гитарист, обладатель премии "Гитарист года" журнала "Guitarist Magazine". Участник группы Asia с 2001 по 2006 гг., начиная с альбома "Aura". В 2006 г. вместе вместе с двумя другими участниками Asia, Джоном Пэйном (John Payne) и Джеем Шелленом (Jay Schellen), основал группу GPS (вскоре к ним присоединился еще один "азиат" — Джефф Даунис (Geoff Downes). Каждый четверг играет с джаз-фьюжн группой The Fellowship в одном из клубов, в своем городе Челмсфорд.
Другие мои раздачи - http://rutracker.org/forum/tracker.php?rid=13061466
Вы не можете начинать темы
Вы не можете отвечать на сообщения
Вы не можете редактировать свои сообщения
Вы не можете удалять свои сообщения
Вы не можете голосовать в опросах
Вы не можете прикреплять файлы к сообщениям
Вы можете скачивать файлы
!ВНИМАНИЕ!

Сайт не предоставляет электронные версии произведений, а занимается лишь коллекционированием и каталогизацией ссылок, присылаемых и публикуемых на форуме нашими читателями. Если вы являетесь правообладателем какого-либо представленного материала и не желаете, чтобы ссылка на него находилась в нашем каталоге, свяжитесь с нами, и мы незамедлительно удалим ее. Файлы для обмена на трекере предоставлены пользователями сайта, и администрация не несет ответственности за их содержание. Просьба не заливать файлы, защищенные авторскими правами, а также файлы нелегального содержания!

Искали программы, игры, дополнения, музыка mp3, аниме, аудио книги, журналы? Добро пожаловать на свободный торрент трекер Torrents, у нас можно скачать бесплатно, без смс и регистрации и прочих ограничений лучшие, отборные сборки программ, игр. Скачать торрентом не составит труда даже не опытному пользователю. Раздачи ежедневно обновляются, только лучшие и качественные раздачи, подробные описания и скриншоты. Огромная коллекция программ для работы со звуком, графикой, дизайном, а так же множество плагинов и инструментов к ним с подробной инструкцией и рекомендациями. Прошивки для навигаторов, карты. Разнообразные игры, для Windows, Linux. В коллекцие есть и старые игры любых жанров, Rpg, Action, Shooter, strategy Множество дополнений, модификаций, сценариев для популярных игр в жанре экш, рпг, гонки, стратегии, логические игры. Множество аддонов и сценариев для Microsoft Flight Simulator Большая коллекция книг, учебников. Если нет возможности купить печатное издание - смело скачивайте цифровую версию книги или, быть может, журнала. Не любите читать - можно загрузить бесплатно аудикнигу. Для веб дизайнеров и программистов так же найдется множество специализированного софта, таких как: редакторы с подсветкой, среды программирования, компоненты, системы управления базами данных, разнообразные скрипты и шаблоны. Не так давно у нас появился материал для автолюбителей и владельцев мото - оригинальные и неоригинальные каталоги запчастей, книги и журналы по ремонту и обслуживанию, видеоуроки, статьи по чип тюнингу, прошивкам. Процедура получения контента элементарная, достаточно просто скачать торрент файл и добавить его в загрузку в вашем торрент клиенте. Если у вас нет специального торрент клиента, вы можете его скачать у нас.