(Progressive Rock, Hard Rock, Guitar Instrumental,) Ron Thal - The Adventures Of Bumblefoot - 1995, APE (image+.cue) lossless 

Цитировать
Ron Thal / The Adventures Of Bumblefoot
Жанр: Progressive Rock, Hard Rock, Guitar Instrumental,
Страна-производитель диска: Болгария
Год издания диска: 1995
Страна: USA
Аудио кодек: APE (*.ape)
Тип рипа: image+.cue
Битрейт аудио: lossless
Продолжительность: 48:14
Источник (релизер): Собственный рип
Наличие сканов в содержимом раздачи: нет
Треклист:
Adventures of Bumblefoot (1995):
1. Bumblefoot (3:46)
2. Orf (5:24)
3. Scrapie (3:06)
4. Blue Tongue (3:38)
5. Limberneck (1:16)
6. Q Fever (6:17)
7. Strawberry Footrot (3:29)
8. Ick (4:36)
9. Malignant Carbuncle (1:31)
10. Rinderpest (4:16)
11. Strangles (3:37)
12. Fistulous Withers (7:34)

Лог создания рипа

Exact Audio Copy V0.99 prebeta 4 from 23. January 2008
Отчёт EAC об извлечении, выполненном 26. октября 2010, 21:16
Unknown Artist / Unknown Title
Дисковод: Optiarc DVD RW AD-5240S Adapter: 3 ID: 1
Режим чтения : Достоверность
Использование точного потока : Да
Отключение кэша аудио : Да
Использование указателей C2 : Нет
Коррекция смещения при чтении : 48
Способность читать области Lead-in и Lead-out : Нет
Заполнение пропущенных сэмплов тишиной : Да
Удаление блоков с тишиной в начале и конце : Нет
При вычислениях CRC использовались нулевые сэмплы : Да
Интерфейс : Встроенный Win32-интерфейс для Win NT/2000
Выходной формат : Внутренние WAV-операции
Формат сэмплов : 44.100 Гц; 16 бит; стерео
TOC извлечённого CD
Трек | Старт | Длительность | Начальный сектор | Конечный сектор
---------------------------------------------------------------------
1 | 0:00.00 | 3:44.08 | 0 | 16807
2 | 3:44.08 | 5:22.07 | 16808 | 40964
3 | 9:06.15 | 3:04.68 | 40965 | 54832
4 | 12:11.08 | 3:36.27 | 54833 | 71059
5 | 15:47.35 | 1:13.56 | 71060 | 76590
6 | 17:01.16 | 6:15.58 | 76591 | 104773
7 | 23:16.74 | 3:27.17 | 104774 | 120315
8 | 26:44.16 | 4:34.36 | 120316 | 140901
9 | 31:18.52 | 1:30.09 | 140902 | 147660
10 | 32:48.61 | 4:13.58 | 147661 | 166693
11 | 37:02.44 | 3:36.15 | 166694 | 182908
12 | 40:38.59 | 7:34.59 | 182909 | 217017
Характеристики диапазона извлечения и сообщения об ошибках
Выбранный диапазон
Имя файла H:\AUDIO\Test\Ron Thal\Unknown Artist - Unknown Title.wav
Пиковый уровень 99.0 %
Качество диапазона 100.0 %
CRC теста 220C7AB8
CRC копии 220C7AB8
Копирование... OK
Ошибок не произошло
Конец отчёта

Содержание индексной карты (.CUE)

REM ACCURATERIPID 00147473-00be7274-9e0b4d0c
REM DISCID 9E0B4D0C
REM COMMENT "ExactAudioCopy v0.99pb4"
PERFORMER "Ron Thal"
TITLE "The Adventures Of Bumblefoot"
FILE "Ron Thal 1995.ape" WAVE
TRACK 01 AUDIO
TITLE "Bumblefoot"
PERFORMER "Ron Thal"
INDEX 01 00:00:00
TRACK 02 AUDIO
TITLE "Orf"
PERFORMER "Ron Thal"
INDEX 01 03:44:08
TRACK 03 AUDIO
TITLE "Scrapie"
PERFORMER "Ron Thal"
INDEX 01 09:06:15
TRACK 04 AUDIO
TITLE "Blue Tongue"
PERFORMER "Ron Thal"
INDEX 01 12:11:08
TRACK 05 AUDIO
TITLE "Limberneck"
PERFORMER "Ron Thal"
INDEX 01 15:47:35
TRACK 06 AUDIO
TITLE "Q Fever"
PERFORMER "Ron Thal"
INDEX 01 17:01:16
TRACK 07 AUDIO
TITLE "Strawberry Footrot"
PERFORMER "Ron Thal"
INDEX 01 23:16:74
TRACK 08 AUDIO
TITLE "Ick"
PERFORMER "Ron Thal"
INDEX 01 26:44:16
TRACK 09 AUDIO
TITLE "Malignant Carbuncle"
PERFORMER "Ron Thal"
INDEX 01 31:18:52
TRACK 10 AUDIO
TITLE "Rinderpest"
PERFORMER "Ron Thal"
INDEX 01 32:48:61
TRACK 11 AUDIO
TITLE "Strangles"
PERFORMER "Ron Thal"
INDEX 01 37:02:44
TRACK 12 AUDIO
TITLE "Fistulous Withers"
PERFORMER "Ron Thal"
INDEX 01 40:38:59

CUETools log

[CUETools log; Date: 07.07.2015 13:48:36; Version: 2.1.4]
[CTDB TOCID: 48QBQgpTYxCVNhwOPEl1Fv3Oi6U-] disk not present in database.
[AccurateRip ID: 00147473-00be7274-9e0b4d0c] disk not present in database.
Track Peak [ CRC32 ] [W/O NULL] [ LOG ]
-- 99,0 [220C7AB8] [1A6608D6] CRC32
01 98,9 [367152DB] [601FBCE5]
02 98,9 [2F767D1A] [211D4202]
03 97,2 [AD62D930] [A7F0D9FE]
04 98,9 [275730C9] [68987CDF]
05 92,4 [CEC2EBCD] [E11D5DB6]
06 98,9 [1E0FCF05] [2A2D83ED]
07 98,9 [79EB6271] [FDCC61EF]
08 99,0 [CFC0D9CC] [5C0C80FE]
09 95,7 [9B86B0B5] [22507808]
10 98,9 [27A651B7] [99608DEC]
11 98,0 [08914D47] [AB32BBAA]
12 99,0 [39732AD5] [0E296962]
Вы не можете начинать темы
Вы не можете отвечать на сообщения
Вы не можете редактировать свои сообщения
Вы не можете удалять свои сообщения
Вы не можете голосовать в опросах
Вы не можете прикреплять файлы к сообщениям
Вы можете скачивать файлы
!ВНИМАНИЕ!

Сайт не предоставляет электронные версии произведений, а занимается лишь коллекционированием и каталогизацией ссылок, присылаемых и публикуемых на форуме нашими читателями. Если вы являетесь правообладателем какого-либо представленного материала и не желаете, чтобы ссылка на него находилась в нашем каталоге, свяжитесь с нами, и мы незамедлительно удалим ее. Файлы для обмена на трекере предоставлены пользователями сайта, и администрация не несет ответственности за их содержание. Просьба не заливать файлы, защищенные авторскими правами, а также файлы нелегального содержания!

Искали программы, игры, дополнения, музыка mp3, аниме, аудио книги, журналы? Добро пожаловать на свободный торрент трекер Torrents, у нас можно скачать бесплатно, без смс и регистрации и прочих ограничений лучшие, отборные сборки программ, игр. Скачать торрентом не составит труда даже не опытному пользователю. Раздачи ежедневно обновляются, только лучшие и качественные раздачи, подробные описания и скриншоты. Огромная коллекция программ для работы со звуком, графикой, дизайном, а так же множество плагинов и инструментов к ним с подробной инструкцией и рекомендациями. Прошивки для навигаторов, карты. Разнообразные игры, для Windows, Linux. В коллекцие есть и старые игры любых жанров, Rpg, Action, Shooter, strategy Множество дополнений, модификаций, сценариев для популярных игр в жанре экш, рпг, гонки, стратегии, логические игры. Множество аддонов и сценариев для Microsoft Flight Simulator Большая коллекция книг, учебников. Если нет возможности купить печатное издание - смело скачивайте цифровую версию книги или, быть может, журнала. Не любите читать - можно загрузить бесплатно аудикнигу. Для веб дизайнеров и программистов так же найдется множество специализированного софта, таких как: редакторы с подсветкой, среды программирования, компоненты, системы управления базами данных, разнообразные скрипты и шаблоны. Не так давно у нас появился материал для автолюбителей и владельцев мото - оригинальные и неоригинальные каталоги запчастей, книги и журналы по ремонту и обслуживанию, видеоуроки, статьи по чип тюнингу, прошивкам. Процедура получения контента элементарная, достаточно просто скачать торрент файл и добавить его в загрузку в вашем торрент клиенте. Если у вас нет специального торрент клиента, вы можете его скачать у нас.